<?xml version="1.0" standalone="no"?>
<!DOCTYPE svg PUBLIC "-//W3C//DTD SVG 1.1//EN" "http://www.w3.org/Graphics/SVG/1.1/DTD/svg11.dtd" >
<svg xmlns="http://www.w3.org/2000/svg" xmlns:xlink="http://www.w3.org/1999/xlink" version="1.1">
<metadata>
Created by FontForge 20200427 at Sun Nov 27 18:41:02 2011
 By www
(URW)++,Copyright 2004 by (URW)++ Design &#38; Development
</metadata>
<defs>
<font id="URWDidoniW01-Normal" horiz-adv-x="560" >
  <font-face 
    font-family="URWDidoniW01-Normal"
    font-weight="400"
    font-stretch="normal"
    units-per-em="1000"
    panose-1="4 0 5 0 0 0 0 0 0 0"
    ascent="734"
    descent="-266"
    x-height="446"
    cap-height="668"
    bbox="-93 -219 1063 930"
    underline-thickness="113"
    underline-position="-236"
    unicode-range="U+000D-2122"
  />
<missing-glyph horiz-adv-x="0" 
 />
    <glyph glyph-name=".notdef" horiz-adv-x="0" 
 />
    <glyph glyph-name=".null" horiz-adv-x="0" 
 />
    <glyph glyph-name="uni000D" unicode="&#xd;" horiz-adv-x="0" 
 />
    <glyph glyph-name="space" unicode=" " horiz-adv-x="173" 
 />
    <glyph glyph-name="exclam" unicode="!" horiz-adv-x="344" 
d="M171 195q42 0 70.5 -29t28.5 -71q0 -43 -28.5 -71.5t-71.5 -28.5q-21 0 -39.5 8t-32 22t-21 32.5t-7.5 40.5q0 42 29 69.5t72 27.5zM164 223q1 9 1 16v12q0 23 -4 42.5t-15 45.5l-16 32t-34 64q-17 32 -26.5 64.5t-9.5 59.5q0 25 9 47t24 38.5t35.5 26t43.5 9.5
q24 0 47 -10.5t39 -27.5q26 -29 26 -80q0 -50 -25 -105q-3 -5 -15 -26.5t-35 -58.5q-10 -17 -16.5 -31.5t-10.5 -30.5t-5.5 -33.5t-1.5 -39.5v-14h-11z" />
    <glyph glyph-name="quotedbl" unicode="&#x22;" horiz-adv-x="486" 
d="M289 389l-25 278h121l-26 -278h-70zM126 389l-25 278h121l-26 -278h-70z" />
    <glyph glyph-name="numbersign" unicode="#" horiz-adv-x="545" 
d="M240 384l-14 -88h91l13 88h-90zM491 212h-103l-33 -212h-85l33 212h-90l-33 -212h-84l33 212h-100v84h114l14 88h-100v84h113l31 199h84l-31 -199h90l31 199h85l-31 -199h88v-84h-101l-14 -88h89v-84z" />
    <glyph glyph-name="dollar" unicode="$" 
d="M320 1q27 12 40 21.5t24 25.5q21 32 21 61q0 32 -19.5 57t-65.5 51v-216zM239 -7q12 1 20 1.5t15 1t15 1t20 1.5v222l-70 32v-259zM308 633q-12 0 -20 -0.5t-14.5 -1.5t-14.5 -2t-20 -3v-184q12 -7 19.5 -11t14.5 -8t15 -7.5t20 -8.5v226zM228 625q-38 -16 -54.5 -36.5
t-16.5 -52.5q0 -27 15 -46.5t56 -45.5v181zM227 -17q-28 5 -49 10.5t-38 12t-31 15t-29 19.5q-25 20 -39 47t-14 56q0 42 26.5 69.5t65.5 27.5t64.5 -28t25.5 -70q0 -23 -8.5 -42.5t-22.5 -32.5q-13 -11 -30.5 -16.5t-48.5 -7.5q15 -11 28 -18.5t27.5 -13t32 -9.5t41.5 -8
v263q-51 22 -85.5 43t-56.5 42.5t-31.5 45.5t-9.5 53q0 36 15 71t43 62q12 11 24 20t26 16.5t32.5 14t42.5 13.5v73h11v-73q12 1 19.5 2t14.5 2t15.5 1.5t20.5 1.5v66h11v-66q25 -5 43.5 -9.5t33.5 -10t27.5 -13t25.5 -17.5q42 -33 42 -77q0 -33 -22.5 -55.5t-55.5 -22.5
q-32 0 -55.5 25t-23.5 60q0 34 18 52.5t58 25.5q-15 8 -24.5 12.5t-18.5 7.5t-20 5t-28 4v-230q43 -20 70.5 -33t45 -22t28 -16.5t20.5 -16.5q28 -23 39 -47t11 -59q0 -45 -15 -79t-47 -66q-15 -15 -30 -26t-32.5 -20t-39 -16t-50.5 -14v-85h-11v86q-18 -4 -28.5 -5
t-21.5 -1h-8.5t-11.5 1v-81h-12v81z" />
    <glyph glyph-name="percent" unicode="%" horiz-adv-x="534" 
d="M118 0h-75l367 652h73zM395 149q2 54 -8.5 85t-33.5 31q-12 0 -19.5 -6t-12 -21t-6 -41.5t-1.5 -66.5q0 -19 1 -40t3 -39.5t4.5 -32.5t4.5 -20q3 -8 11.5 -13t16.5 -5q39 0 39 71zM356 277q27 0 50 -12t40 -32.5t27 -48t10 -59.5t-10.5 -60.5t-28.5 -50t-42 -34
t-51 -12.5q-26 0 -49 12t-40 33t-27 48.5t-10 58.5q0 34 10 62.5t27.5 49.5t41.5 33t52 12zM160 644q-24 0 -33.5 -36t-9.5 -128q0 -29 4 -56.5t10 -40.5q8 -17 28 -17q23 0 32.5 22t9.5 76q0 16 -0.5 37t-1.5 41t-2 36t-2 22q-6 44 -35 44zM159 657q28 0 51.5 -11.5
t40.5 -32t26.5 -49t9.5 -61.5q0 -30 -10.5 -57.5t-28 -48t-41 -32.5t-49.5 -12t-48.5 12t-39 32.5t-26.5 47.5t-10 58t10 59t27.5 49t40 33.5t47.5 12.5z" />
    <glyph glyph-name="ampersand" unicode="&#x26;" horiz-adv-x="820" 
d="M398 450q3 1 6 3q34 11 34 35q0 8 -6 27t-15 41.5t-20 45t-20 37.5q-11 16 -19.5 22.5t-21.5 6.5q-12 0 -19.5 -7t-7.5 -19q0 -50 89 -192zM406 105q-30 36 -53 64.5t-43 55t-38 54t-39 60.5q-5 6 -8.5 12t-7.5 12q-49 -9 -48 -41q2 -45 32 -101t81 -108q28 -29 44 -39.5
t32 -10.5q13 0 23.5 9t24.5 33zM784 212q0 -23 -6 -46.5t-17 -46.5t-26.5 -44t-33.5 -37q-50 -44 -109 -44q-20 0 -38 5t-38 16.5t-44 31t-55 49.5q-28 -32 -47 -48.5t-42 -27.5q-50 -24 -106 -24q-41 0 -75 13t-59.5 35.5t-39.5 53.5t-14 68q0 34 13.5 67.5t37.5 61.5
t56.5 49.5t71.5 32.5q-23 48 -32.5 77.5t-9.5 55.5q0 37 16 69.5t43.5 56.5t65 38t81.5 14q78 0 123 -30.5t45 -82.5q0 -44 -32.5 -76t-107.5 -62l18 -24t18 -23l28 -40l27 -32l14 -16q21 49 41 83t40 55.5t42 31t48 9.5q46 0 75.5 -29.5t29.5 -75.5t-29 -76.5t-72 -30.5
q-42 0 -70.5 28t-28.5 69q0 14 4.5 29t15.5 40q-16 -17 -27.5 -31.5t-21 -31t-18 -36.5t-18.5 -48q10 -14 19 -24.5t18 -19.5t19.5 -18.5t24.5 -20.5q20 -16 35 -26.5t27.5 -16.5t23.5 -8.5t23 -2.5q28 0 45 17t17 43v1l-3 31h11l3 -28v-3z" />
    <glyph glyph-name="quotesingle" unicode="'" horiz-adv-x="243" 
d="M86 389l-25 278h121l-26 -278h-70z" />
    <glyph glyph-name="parenleft" unicode="(" horiz-adv-x="344" 
d="M305 660q-15 -10 -26 -18.5t-19.5 -17.5t-16 -19.5t-14.5 -24.5q-17 -30 -31 -72.5t-24 -91t-15.5 -100.5t-5.5 -102q0 -72 13 -143t38 -132q8 -21 16.5 -36.5t19 -28t24 -24.5t32.5 -25l-1 -8q-20 12 -35 21.5t-27.5 19t-24 20.5t-24.5 26q-65 73 -98 158.5t-33 177.5
q0 103 40.5 195t119.5 169q23 23 41 36t46 28z" />
    <glyph glyph-name="parenright" unicode=")" horiz-adv-x="341" 
d="M39 -177q15 10 26 19t19 18t15 19.5t15 24.5q16 29 29 68.5t22.5 84t14.5 92t5 92.5q0 55 -7 110.5t-19 105t-29 90t-36 65.5q-11 13 -21.5 22t-31.5 23v10q77 -36 157 -146q24 -32 41 -64t28 -65t16 -69t5 -76q0 -51 -7.5 -96.5t-24 -87t-42.5 -81t-62 -79.5
q-29 -33 -52 -51.5t-55 -34.5z" />
    <glyph glyph-name="asterisk" unicode="*" horiz-adv-x="423" 
d="M206 531q0 10 -0.5 16t-3.5 12t-9.5 13.5t-17.5 21.5q-5 5 -7.5 14.5t-2.5 17.5q0 21 14.5 35t35.5 14q20 0 34 -14.5t14 -37.5q0 -21 -17 -39q-9 -10 -14 -16.5t-8 -13.5t-4.5 -16t-2.5 -23q21 14 29.5 21t12.5 13l3 7l7 24q11 34 45 34q21 0 35 -14.5t14 -36.5
q0 -23 -13 -37t-33 -14q-5 0 -9.5 0.5t-23.5 5.5q-4 1 -12 1q-11 0 -21 -3t-27 -12q21 -13 46 -13q5 0 8.5 0.5t20.5 2.5q3 1 11 1q22 0 36.5 -15t14.5 -38q0 -21 -13.5 -34t-35.5 -13q-23 0 -37 16q-2 3 -3.5 5t-3 6.5t-4 11.5t-6.5 21q-4 10 -12 17.5t-28 22.5
q-1 -5 -1 -10v-8q0 -8 0.5 -12.5t3 -10t8 -12.5t16.5 -19q15 -18 15 -36q0 -21 -14.5 -36.5t-34.5 -15.5t-35 16t-15 38q0 11 4.5 20t17.5 23q10 11 13.5 17t5.5 17q1 3 1.5 7.5t3.5 20.5q-14 -8 -21.5 -13.5t-13 -12.5t-9.5 -16.5t-11 -26.5q-5 -13 -17 -20.5t-26 -7.5
q-21 0 -35 14.5t-14 36.5q0 23 14.5 38t34.5 15q4 0 8 -1l24 -6h9q17 0 26.5 2t23.5 10q-36 17 -51 17q-3 0 -6 -0.5t-20 -5.5q-3 -1 -9 -1q-21 0 -36 15.5t-15 36.5t14.5 36t35.5 15t34 -16q2 -2 3.5 -4t3 -5.5t3.5 -10.5t6 -19q5 -17 14 -26.5t29 -20.5v14z" />
    <glyph glyph-name="plus" unicode="+" horiz-adv-x="500" 
d="M202 388v185h95v-185h196v-95h-196v-185h-95v185h-195v95h195z" />
    <glyph glyph-name="comma" unicode="," horiz-adv-x="321" 
d="M84 -91q66 -1 98.5 24.5t43.5 85.5q-23 -11 -37.5 -15.5t-29.5 -4.5q-41 0 -68.5 27t-27.5 67q0 37 25.5 61.5t64.5 24.5q23 0 45 -9.5t37 -25.5q22 -25 22 -75q0 -36 -12 -67t-32 -54t-47 -36.5t-58 -13.5q-11 0 -24 3v8z" />
    <glyph glyph-name="hyphen" unicode="-" horiz-adv-x="337" 
d="M53 190q6 84 86 84h12t12.5 -1t19.5 -3t35 -6q10 -2 20 -2q17 0 24.5 4.5t13.5 16.5h7q-8 -24 -15 -40t-17 -25t-23 -12.5t-31 -3.5q-10 0 -21.5 1.5t-23.5 3.5q-20 4 -35.5 6t-25.5 2q-25 0 -31 -25h-7z" />
    <glyph glyph-name="period" unicode="." horiz-adv-x="324" 
d="M162 194q42 0 71 -29t29 -71t-28.5 -70.5t-70.5 -28.5q-43 0 -71.5 27.5t-28.5 69.5q0 45 27 73.5t72 28.5z" />
    <glyph glyph-name="slash" unicode="/" horiz-adv-x="405" 
d="M353 669h32l-331 -681h-34z" />
    <glyph glyph-name="zero" unicode="0" 
d="M273 635q-19 0 -34 -13.5t-23 -36.5q-15 -44 -15 -195q0 -69 1.5 -127.5t4 -103.5t6 -75.5t8.5 -43.5q16 -45 55 -45q41 0 57 43q9 25 13.5 90.5t4.5 177.5q0 49 -1 93t-3 79.5t-5 61.5t-7 39q-8 26 -24 41t-38 15zM281 642q42 0 84 -21.5t74 -59.5q35 -41 55 -105
t20 -136q0 -69 -18 -130t-49.5 -106.5t-73.5 -72t-90 -26.5q-53 0 -96.5 24t-75 67.5t-49 103.5t-17.5 132q0 137 55 219q35 53 82.5 82t98.5 29z" />
    <glyph glyph-name="one" unicode="1" 
d="M127 12h20q23 0 35.5 16.5t12.5 46.5v407q0 18 -2 29t-8.5 17t-19 8t-32.5 2v9q25 4 55.5 16t60.5 27t56 32t41 33h9v-597q0 -22 12 -34t33 -12h30v-12h-303v12z" />
    <glyph glyph-name="two" unicode="2" 
d="M68 1q-6 29 -8.5 44.5t-2.5 30.5q0 18 4 38t11 39.5t17 37.5t21 31q8 10 14.5 16.5t18 14t31 19t53.5 31.5q48 27 68.5 66.5t20.5 102.5q0 155 -100 155q-35 0 -65.5 -20t-44.5 -52q-5 -10 -6 -17.5t-1 -24.5q17 17 29 23.5t30 6.5q39 0 60.5 -22t21.5 -60t-23 -60.5
t-61 -22.5t-64 26.5t-26 67.5q0 32 14 64.5t37 56.5q53 53 151 53q48 0 88 -12.5t68.5 -34.5t44.5 -53t16 -68q0 -68 -52 -112q-12 -10 -25 -18t-30 -15.5t-39.5 -15.5t-53.5 -17q-57 -17 -90.5 -32.5t-53.5 -32.5q-32 -27 -52 -69t-20 -80v-11.5t1 -16.5l2 4q18 52 68 80
t124 28q30 0 63 -3q20 -2 39 -2.5t27 -0.5q28 0 50.5 7.5t33.5 20.5q8 10 11.5 24t6.5 40l8 -1q-2 -40 -5 -69t-6.5 -50.5t-8.5 -37.5t-12 -29q-20 -38 -51.5 -57.5t-72.5 -19.5q-20 0 -40.5 5.5t-37.5 15.5q-3 2 -20.5 17t-49.5 43q-24 21 -55 21q-30 0 -49 -17t-19 -44
q0 -10 3 -32h-11z" />
    <glyph glyph-name="three" unicode="3" 
d="M244 358q38 0 54.5 22.5t16.5 75.5q0 49 -4 82t-13 53t-24 28.5t-37 8.5q-36 0 -60.5 -15t-34.5 -42q12 5 19 6.5t15 1.5q32 0 53 -23t21 -58q0 -36 -22.5 -58.5t-57.5 -22.5q-36 0 -58 24t-22 64q0 30 13 55.5t37 43.5t57.5 28t74.5 10q43 0 79 -10.5t62 -30t40.5 -46
t14.5 -58.5q0 -47 -32 -82q-8 -9 -17 -16.5t-20.5 -14.5t-26 -13.5t-34.5 -13.5q26 -8 45.5 -14.5t34.5 -14t26.5 -15.5t23.5 -19q22 -20 34.5 -48.5t12.5 -58.5q0 -41 -20 -76.5t-54.5 -62.5t-80.5 -42.5t-98 -15.5q-45 0 -84 12t-67.5 33t-44.5 49.5t-16 61.5
q0 48 26.5 78.5t68.5 30.5q40 0 62.5 -22t22.5 -62q0 -26 -6.5 -42.5t-20.5 -27.5q-25 -19 -53 -19q-13 0 -24 3.5t-29 14.5q4 -14 7.5 -23t8 -16t11 -13.5t15.5 -13.5q20 -17 43 -24t55 -7q34 0 52 9t34 32q6 10 10.5 20.5t6.5 25t3 35.5t1 52q0 91 -23.5 129.5t-80.5 38.5
h-42l1 13h45z" />
    <glyph glyph-name="four" unicode="4" 
d="M238 223v328l-188 -328h188zM274 635h131v-412h45q19 0 29 10.5t20 38.5h11l-20 -83h-85v-112q0 -26 1 -35t4 -15q9 -15 40 -15h27v-12h-324v12h42q22 0 35 13q8 11 8 57v107h-221z" />
    <glyph glyph-name="five" unicode="5" 
d="M464 627q-14 -71 -66.5 -104.5t-149.5 -33.5h-21.5t-21.5 1t-24.5 2.5l-31.5 3.5q-3 -9 -4.5 -15t-3 -13t-3.5 -16.5t-5 -25.5t-5.5 -27.5t-5 -21.5t-5.5 -20.5t-7 -25.5q19 22 32 32t33 18q24 11 50.5 16.5t53.5 5.5q47 0 88 -15.5t72 -42t48.5 -62.5t17.5 -76
q0 -48 -18.5 -88.5t-52 -70t-80 -45.5t-102.5 -16q-45 0 -82 11.5t-63.5 32.5t-41 50t-14.5 64q0 45 25.5 74t64.5 29q37 0 61.5 -25t24.5 -62q0 -36 -22.5 -59.5t-57.5 -23.5q-37 0 -63 26q5 -50 43.5 -77.5t101.5 -27.5q31 0 48 8.5t29 29.5q25 47 25 150q0 57 -6 90.5
t-20 59.5q-11 20 -33.5 32t-48.5 12q-39 0 -68 -20.5t-55 -67.5h-8q11 42 18 71t13 57t11.5 62t14.5 87q2 17 5 32t5 29q20 -5 38 -7.5t37.5 -4.5t42 -2.5t51.5 -0.5q22 0 37.5 0.5t29.5 2t28.5 4t34.5 7.5z" />
    <glyph glyph-name="six" unicode="6" 
d="M300 373q-40 0 -63 -42.5t-23 -117.5q0 -24 2 -49t5.5 -49t8 -44t10.5 -33q17 -38 56 -38q19 0 33.5 8t19.5 22q3 8 5.5 25.5t5 41t3.5 51t1 55.5q0 20 -2 41.5t-6 41t-8.5 36.5t-10.5 29q-5 10 -15 16t-22 6zM398 598q-8 17 -28 26.5t-47 9.5q-55 0 -76 -43
q-12 -23 -19.5 -43.5t-12 -47.5t-6 -63t-1.5 -89v-20.5t1 -35.5q7 21 13 32t17 23q12 12 21.5 20t19.5 12.5t21.5 6t28.5 1.5q39 0 71.5 -13t56 -36t37 -55t13.5 -70q0 -46 -16.5 -87t-45.5 -71.5t-67.5 -48t-82.5 -17.5q-53 0 -97 23t-76.5 64.5t-50.5 98t-18 122.5
q0 74 21 137.5t58 110t87.5 72.5t109.5 26q68 0 111 -33.5t43 -87.5q0 -39 -24 -64.5t-61 -25.5q-34 0 -56 23t-22 58q0 40 29 67q9 9 19 12.5t29 5.5z" />
    <glyph glyph-name="seven" unicode="7" 
d="M121 584q35 38 63 53.5t66 15.5q10 0 17 -0.5t20.5 -4t37 -11.5t67.5 -22q18 -6 41 -6q34 0 55 21l6 -2q-3 -41 -8.5 -70.5t-16 -55.5t-27.5 -53.5t-45 -64.5q-27 -36 -45 -67t-29 -61t-15.5 -61t-4.5 -67q0 -18 1 -32.5t3.5 -29t7 -30.5t10.5 -36h-213q-1 14 -1 22v19
q0 41 10.5 78t34 73.5t61 74t90.5 79.5q52 40 83 66.5t48 50.5t25 51t15 69q-36 -53 -71.5 -75t-83.5 -22q-9 0 -15 0.5t-18 2.5t-33 7.5t-59 14.5q-9 3 -23 3q-16 0 -31 -7t-23 -19q-10 -13 -14.5 -28t-9.5 -44l-10 -1l10 60t6.5 45t4.5 44.5t5 60.5h8v-41z" />
    <glyph glyph-name="eight" unicode="8" 
d="M352 394q9 10 14.5 18.5t8.5 20t4 26.5t1 37q0 35 -4 57.5t-13 39.5q-10 18 -29 29t-40 11q-36 0 -58.5 -28t-22.5 -73q0 -22 5 -39t17 -31t32 -26.5t49 -25.5q6 -2 15 -6.5t21 -9.5zM186 292q-6 -6 -7 -7.5t-3 -3.5q-14 -16 -19.5 -42t-5.5 -75q0 -65 20 -106
q14 -32 38 -45.5t63 -13.5q54 0 83.5 29t29.5 83q0 28 -9 52.5t-25 39.5q-7 7 -14.5 13t-19.5 13t-31 15.5t-48 22.5q-8 4 -21.5 10.5t-30.5 14.5zM370 390q40 -17 61.5 -30t39.5 -32q43 -49 43 -120q0 -47 -19 -87t-52 -69.5t-78 -46.5t-97 -17q-49 0 -91 12.5t-73 35
t-49 52.5t-18 65q0 23 9 46t26 42q8 9 17 17t20 15t25.5 14t34.5 15q-25 19 -41.5 35t-26.5 32.5t-14 34.5t-4 42q0 102 78 156q63 43 129 43q36 0 67.5 -11t55.5 -30t38 -44.5t14 -53.5q0 -35 -21 -60.5t-74 -55.5z" />
    <glyph glyph-name="nine" unicode="9" 
d="M269 636q-20 0 -34 -7.5t-22.5 -24t-12 -44t-3.5 -67.5q0 -139 12 -182q17 -59 56 -59q18 0 36.5 12t28.5 32q14 26 19 57.5t5 84.5q0 198 -85 198zM352 324q-11 -27 -21 -42t-24 -24q-16 -11 -39 -17t-48 -6q-39 0 -70.5 13t-54 36.5t-34.5 57t-12 75.5q0 48 17 89.5
t46.5 72.5t69 48.5t85.5 17.5q52 0 97.5 -23t78.5 -63t52 -94.5t19 -117.5q0 -74 -23 -142.5t-66 -122.5q-35 -44 -86 -68.5t-105 -24.5q-61 0 -99.5 33t-38.5 87q0 37 21 59t56 22t59.5 -22t24.5 -54t-20.5 -54t-51.5 -22q-4 0 -13.5 0.5t-18.5 1.5q15 -23 32 -32t49 -9
q40 0 61.5 19.5t36.5 70.5q10 35 15.5 81.5t5.5 97.5v24t-1 32z" />
    <glyph glyph-name="colon" unicode=":" horiz-adv-x="320" 
d="M165 448q41 0 66.5 -23t25.5 -60q0 -18 -7.5 -33.5t-20.5 -27.5t-31 -18.5t-38 -6.5q-42 0 -69 24t-27 62t27 60.5t74 22.5zM156 167q45 0 72 -23.5t27 -62.5q0 -36 -28 -60.5t-69 -24.5q-42 0 -68.5 24t-26.5 61q0 38 25.5 62t67.5 24z" />
    <glyph glyph-name="semicolon" unicode=";" horiz-adv-x="329" 
d="M162 449q43 0 68.5 -22t25.5 -60q0 -17 -8 -32t-21.5 -26t-31.5 -17.5t-38 -6.5q-40 0 -65.5 23.5t-25.5 60.5q0 35 26.5 57.5t69.5 22.5zM106 -90q60 4 92.5 36t34.5 88q-23 -16 -38 -21.5t-34 -5.5q-20 0 -38 7.5t-31.5 20t-21 29.5t-7.5 36q0 35 25.5 58.5t63.5 23.5
q48 0 78 -31t30 -82q0 -38 -15 -74t-41 -59q-17 -15 -37.5 -22.5t-58.5 -12.5z" />
    <glyph glyph-name="less" unicode="&#x3c;" horiz-adv-x="500" 
d="M493 492l-362 -159l362 -139v-104l-486 190v105l486 211v-104z" />
    <glyph glyph-name="equal" unicode="=" horiz-adv-x="500" 
d="M493 308v-95h-486v95h486zM493 467v-95h-486v95h486z" />
    <glyph glyph-name="greater" unicode="&#x3e;" horiz-adv-x="500" 
d="M7 194l362 158l-362 140v104l486 -190v-105l-486 -211v104z" />
    <glyph glyph-name="question" unicode="?" horiz-adv-x="590" 
d="M276 183q42 0 69.5 -28t27.5 -70t-27.5 -69.5t-69.5 -27.5t-70 28t-28 70t28 69.5t70 27.5zM244 209q-1 10 -1.5 16t-0.5 12q0 26 9.5 52t36.5 70q13 22 22 40t14 34.5t7.5 33t2.5 35.5q0 93 -37 121q-29 23 -69 23q-37 0 -61.5 -16t-43.5 -52q22 5 31 5q19 0 37 -8.5
t32 -22t22.5 -31.5t8.5 -37q0 -23 -8 -42.5t-22 -34t-33 -23t-40 -8.5q-45 0 -74.5 30t-29.5 77q0 60 41 107q32 37 83.5 56.5t119.5 19.5q55 0 101 -13t80 -36t53 -54.5t19 -68.5q0 -45 -30 -78q-20 -23 -63 -46.5t-93 -39.5q-58 -18 -81.5 -37t-23.5 -48q0 -16 3 -35z" />
    <glyph glyph-name="at" unicode="@" horiz-adv-x="672" 
d="M367 376l-8 -8q-9 -8 -14.5 -12t-8.5 -6.5t-4.5 -5t-3.5 -5.5q-7 -11 -11 -27t-4 -33v-52q0 -29 4 -41.5t15 -12.5q10 0 19.5 9.5t16.5 25.5t11.5 37t4.5 44v103zM627 133q-33 -41 -63.5 -68.5t-64 -44.5t-71.5 -24.5t-85 -7.5q-78 0 -143 25.5t-112.5 71t-74 108.5
t-26.5 138t27 138.5t74.5 110t113 73t143.5 26.5q69 0 128 -21t102 -58.5t67 -89.5t24 -113q0 -50 -14.5 -94.5t-40 -77.5t-59.5 -52.5t-72 -19.5q-41 0 -62 16.5t-34 57.5q-9 -22 -18 -36t-19.5 -22.5t-24.5 -12t-33 -3.5q-55 0 -85.5 25t-30.5 70q0 18 6.5 36t18.5 32
q18 21 79 33q34 6 58.5 17.5t34.5 25.5q7 10 11 29.5t4 43.5q0 31 -11.5 43.5t-39.5 12.5q-21 0 -37.5 -7t-25.5 -18q17 -2 27 -4.5t18 -10.5q22 -20 22 -51q0 -28 -20.5 -47t-49.5 -19t-49 20t-20 49q0 45 44 72t115 27q95 0 136 -45q6 -8 10.5 -15t6.5 -16t3 -21.5
t1 -30.5v-163q0 -8 5 -13.5t13 -5.5q13 0 26.5 14t24 36.5t17.5 50.5t7 55q0 52 -19 96t-53 75.5t-81.5 49.5t-103.5 18q-60 0 -111.5 -22t-90 -60t-60 -90.5t-21.5 -112.5t21.5 -111.5t59.5 -89t90 -59t113 -21.5q28 0 53 4.5t48 14t45.5 25t47.5 38.5h81z" />
    <glyph glyph-name="A" unicode="A" horiz-adv-x="754" 
d="M373 291l-82 266l-88 -266h170zM3 16q25 1 46.5 11.5t40 33t36.5 58t36 86.5l148 467h150l199 -593q7 -21 12.5 -33.5t12 -19t15.5 -8.5t23 -2h29v-16h-388v16h41q43 0 43 28q0 15 -6 35l-64 197h-174q-8 -19 -15.5 -40.5t-13 -42t-8.5 -39.5t-3 -32q0 -31 11 -55.5
t30 -35.5q15 -9 30 -12t41 -3v-16h-272v16z" />
    <glyph glyph-name="B" unicode="B" horiz-adv-x="722" 
d="M305 368h79q29 0 41.5 30.5t12.5 97.5q0 54 -8.5 92.5t-22.5 50.5q-9 8 -19.5 10t-38.5 2h-44v-283zM306 60q0 -46 36 -46h53q31 0 47 32t16 94q0 36 -1 62.5t-3.5 46.5t-6.5 35t-10 27q-8 18 -27.5 29.5t-40.5 11.5h-63v-292zM13 16h45q23 0 37 12t14 30v561
q0 19 -11.5 25.5t-45.5 6.5h-33v16h341q36 0 63.5 -2t50 -6.5t42 -11.5t39.5 -18q37 -20 56.5 -50.5t19.5 -68.5q0 -27 -11 -52t-30 -42q-11 -9 -22 -16.5t-25 -13.5t-32.5 -12t-43.5 -13q28 -5 49 -9.5t38.5 -10.5t31.5 -14t29 -18q31 -22 49 -58t18 -77q0 -45 -21.5 -81.5
t-60.5 -58.5q-18 -10 -37 -16.5t-43.5 -10.5t-58.5 -5.5t-82 -1.5h-366v16z" />
    <glyph glyph-name="C" unicode="C" horiz-adv-x="719" 
d="M641 353h-11q-8 57 -25.5 105t-48.5 97q-68 108 -154 108q-41 0 -66.5 -27t-45.5 -89q-14 -45 -20.5 -95t-6.5 -119q0 -45 2 -79.5t6.5 -63t12 -52.5t18.5 -47q20 -44 48 -63.5t72 -19.5q50 0 92.5 20t73.5 55.5t48.5 84t17.5 105.5h11q0 -19 -0.5 -32.5t-2.5 -25
t-5.5 -23.5t-9.5 -28q-32 -90 -95 -131t-168 -41q-86 0 -153.5 29t-114.5 86q-37 45 -56.5 98.5t-19.5 109.5q0 43 11.5 85.5t32.5 81.5t50.5 72.5t66.5 58.5q94 64 181 64q26 0 50 -5.5t53 -18.5q56 -25 84 -25q12 0 26 5.5t24 14.5q6 5 9 25h13v-320z" />
    <glyph glyph-name="D" unicode="D" horiz-adv-x="763" 
d="M396 15q35 0 56 21.5t32 72.5q22 89 22 241q0 66 -1 109t-4 71.5t-8 47.5t-14 36q-12 23 -34 31.5t-72 8.5q-32 0 -45.5 -9t-13.5 -31v-582q0 -17 17 -17h65zM13 665l323 1q43 0 73.5 -1t53 -3t40.5 -5.5t36 -8.5q45 -14 77 -39.5t55 -67.5q52 -95 52 -208
q0 -168 -123 -268q-23 -19 -44 -31.5t-44.5 -20t-51.5 -10.5t-65 -3l-381 1v14h43q65 0 65 52v530q0 54 -57 54h-52v14z" />
    <glyph glyph-name="E" unicode="E" horiz-adv-x="685" 
d="M20 669h577v-254h-12q-1 26 -3.5 45.5t-7.5 36t-14 32t-22 32.5q-73 93 -187 93h-31v-286h19q27 0 54.5 16.5t48.5 45.5q18 24 24.5 43t6.5 48v9h13v-358h-13v10q0 30 -7.5 52.5t-25.5 47.5q-20 29 -49 47.5t-52 18.5h-19v-305q0 -17 13 -23.5t46 -6.5q54 0 89.5 16
t62.5 53q23 30 43 68t32 73q7 19 9.5 35.5t3.5 48.5h13v-307h-612v13h33q42 0 58 13t16 48v540q0 22 -18 31t-60 9h-29v15z" />
    <glyph glyph-name="F" unicode="F" horiz-adv-x="605" 
d="M20 14h23q35 0 47 13t12 48v535q0 9 -5.5 17t-14 14.5t-19.5 10.5t-22 4l-21 -1v14h545v-258h-12q-1 26 -4 45t-9.5 36t-17 33.5t-27.5 37.5q-36 45 -75.5 69t-77.5 24h-38v-291q74 15 106 50.5t32 103.5h14v-339h-14v16q0 19 -2 34t-6.5 27.5t-12 23.5t-18.5 22
q-23 23 -45 33t-54 13v-280q0 -55 50 -55h34v-14h-368v14z" />
    <glyph glyph-name="G" unicode="G" horiz-adv-x="762" 
d="M643 672v-268h-13q-3 24 -8.5 45t-14.5 41.5t-23 41.5t-33 44q-35 45 -71 64.5t-81 19.5q-21 0 -37.5 -5.5t-29 -18.5t-23 -34.5t-20.5 -53.5q-17 -52 -24 -105.5t-7 -122.5q0 -84 6.5 -144t21 -98t37.5 -55.5t55 -17.5q39 0 65 17q37 24 37 98v162q0 49 -59 49h-40v15
h368v-15h-26q-19 -1 -31 -14t-12 -33v-285h-15q0 14 -1.5 22t-6.5 15q-8 14 -28.5 23t-43.5 9q-12 0 -21 -1t-18.5 -5.5t-23.5 -13.5t-37 -25q-50 -35 -120 -35q-66 0 -125.5 26t-103.5 70t-70 103.5t-26 125.5q0 81 35 151t102 124q52 42 106.5 64.5t105.5 22.5
q16 0 27.5 -1t24.5 -4t30.5 -9.5t45.5 -17.5q23 -10 54 -10q26 0 39 8.5t20 30.5h13z" />
    <glyph glyph-name="H" unicode="H" horiz-adv-x="778" 
d="M20 16h16q20 0 34.5 15t14.5 36v549q0 34 -38 34h-27v17h330v-17h-16q-21 1 -36.5 -12t-15.5 -33v-229h209v229q0 20 -12.5 32.5t-32.5 12.5h-17v17h329v-17h-21q-22 0 -34.5 -12t-12.5 -33v-550q0 -17 11.5 -28.5t29.5 -10.5h27v-16h-329v16h17q45 0 45 59v285h-209
v-305q0 -39 35 -39h33v-16h-330v16z" />
    <glyph glyph-name="I" unicode="I" horiz-adv-x="409" 
d="M20 17h29q54 0 54 76v519q0 41 -54 41h-29v15h369v-15h-26q-26 0 -42 -11.5t-16 -29.5v-541q0 -25 13 -39.5t35 -14.5h36v-17h-369v17z" />
    <glyph glyph-name="J" unicode="J" horiz-adv-x="610" 
d="M515 199q0 -47 -3 -67t-11 -33q-15 -24 -42 -44.5t-61.5 -35.5t-74 -23.5t-80.5 -8.5q-50 0 -91.5 12t-70.5 34t-45 53t-16 69q0 27 9.5 50.5t26 41t38.5 27t48 9.5q24 0 45.5 -9t37 -24t25 -35.5t9.5 -43.5t-8.5 -43t-23 -35t-34 -24t-41.5 -9q-14 0 -25.5 2.5
t-26.5 7.5q28 -63 102 -63q56 0 85 36t29 105v450q0 29 -15.5 41t-50.5 12h-29v16h372v-16h-27q-25 0 -38 -12.5t-13 -35.5v-404z" />
    <glyph glyph-name="K" unicode="K" horiz-adv-x="785" 
d="M20 17h22q52 0 52 51v551q0 15 -16 25.5t-38 10.5h-20v15h336v-15h-23q-20 0 -32 -9.5t-12 -26.5v-243l149 146q18 18 29 42t11 47q0 44 -55 44h-18v15h290v-15h-30q-8 0 -16 -2t-17.5 -6.5t-22 -12.5t-30.5 -21q-36 -25 -57 -40.5t-37 -29t-31 -29.5t-38 -41l261 -405
q15 -24 32 -37.5t31 -13.5h38v-17h-397v17h24q12 0 20.5 7t8.5 17q0 8 -5 21t-13 29l-127 229v-266q0 -15 9 -26t23 -11h27v-17h-328v17z" />
    <glyph glyph-name="L" unicode="L" horiz-adv-x="638" 
d="M44 15q29 0 47.5 18.5t18.5 46.5v528q0 20 -19 32.5t-50 12.5h-21v16h391v-16h-28q-70 0 -70 -52v-542q0 -45 54 -45q80 0 157 114q14 21 24 39.5t17 37t11.5 40t8.5 49.5h13v-295h-578v16h24z" />
    <glyph glyph-name="M" unicode="M" horiz-adv-x="856" 
d="M3 15h24q37 0 56 34q13 23 21 55t8 61v408q0 17 -7 33t-19 24q-11 8 -28.5 12.5t-54.5 9.5v16h303l130 -463l114 463h286v-16h-35q-41 0 -54 -9t-13 -39v-527q0 -33 13 -47.5t45 -14.5h44v-16h-377v16h40q38 0 38 62v471l-138 -549h-111l-163 549v-370q0 -42 5.5 -70.5
t18.5 -51.5q14 -24 26.5 -32.5t33.5 -8.5h35v-16h-241v16z" />
    <glyph glyph-name="N" unicode="N" horiz-adv-x="715" 
d="M21 16h21q42 0 66 49t24 137v378q0 14 -7.5 28.5t-19.5 24.5q-10 8 -21.5 11.5t-32.5 4.5v18h292l240 -465v299q0 10 -2 24.5t-5 29t-6.5 27.5t-6.5 20q-22 47 -71 47h-26v18h232v-18h-24q-15 0 -31.5 -12t-27.5 -30q-10 -17 -14 -39.5t-4 -57.5v-513h-158l-294 565v-375
q0 -27 0.5 -45t3 -31t6 -23t9.5 -22q14 -27 30 -37.5t48 -12.5l23 -2v-15h-245z" />
    <glyph glyph-name="O" unicode="O" horiz-adv-x="751" 
d="M375 668q-33 0 -54 -14.5t-36 -49.5q-37 -87 -37 -270q0 -169 26 -253q11 -35 37.5 -56t60.5 -21q26 0 48.5 13t33.5 34q19 38 29 103.5t10 149.5q0 16 -0.5 41.5t-1.5 51t-2.5 48t-2.5 33.5q-5 55 -13 91.5t-20.5 58.5t-31.5 31t-46 9zM379 680q55 0 110.5 -25
t106.5 -72q60 -56 87.5 -115.5t27.5 -133.5q0 -66 -28 -128t-75 -109.5t-107.5 -76t-126.5 -28.5q-32 0 -66 8t-67 23t-63 35.5t-53 45.5q-41 44 -63 102t-22 121q0 77 34 146.5t97 121.5q103 85 208 85z" />
    <glyph glyph-name="P" unicode="P" horiz-adv-x="645" 
d="M306 335q0 -24 6.5 -31t26.5 -7q23 0 44 10t29 24q4 8 6 16t3.5 19t2 26t0.5 37q0 69 -3.5 113.5t-12 69.5t-23.5 34.5t-39 9.5h-8t-32 -1v-320zM20 669h375q48 0 89 -14t70.5 -39t46.5 -59.5t17 -74.5q0 -42 -20 -78.5t-55.5 -63.5t-83.5 -42t-103 -15q-10 0 -20 0.5
t-27 2.5v-218q0 -23 16.5 -37.5t43.5 -14.5h32l-1 -16h-377v16h33q29 0 41 16.5t12 55.5v507q0 32 -14 45t-49 13h-26v16z" />
    <glyph glyph-name="Q" unicode="Q" horiz-adv-x="756" 
d="M637 117q-46 -47 -89 -75.5t-78 -35.5q15 -15 27 -20.5t31 -5.5q22 0 42.5 8.5t36.5 22t25 31.5t9 38q0 17 -4 37zM361 5q10 19 12.5 23.5t6.5 9.5q14 22 18.5 32t4.5 21q0 18 -11.5 30t-29.5 12q-22 0 -38 -19.5t-16 -46.5q0 -28 18 -49q6 -6 13.5 -8.5t21.5 -4.5z
M295 73q0 31 23 54t54 23q61 0 70 -84q3 -33 13 -33q2 0 4 3t7 12q15 32 23 98.5t8 155.5q0 36 -2 78.5t-5.5 82t-7.5 72t-8 48.5q-12 47 -33 64t-64 17q-30 0 -49 -10t-30 -32q-11 -21 -18.5 -46t-12.5 -58t-7 -75t-2 -97q0 -54 1.5 -93t5.5 -70t11.5 -58.5t18.5 -57.5v6z
M350 -12q-38 7 -66.5 15t-51.5 18.5t-42.5 24.5t-38.5 33q-58 57 -84.5 116.5t-26.5 133.5q0 42 9.5 78t29.5 71q24 42 58.5 78.5t74.5 63.5t82 42.5t81 15.5q17 0 37.5 -4t42 -10.5t43 -16t40.5 -21.5q40 -24 73 -57.5t56 -72.5t36 -82.5t13 -87.5q0 -27 -3.5 -51
t-12 -47.5t-22 -47.5t-33.5 -52q5 -14 8 -25t5 -20.5t2.5 -18.5t0.5 -19q0 -42 -12 -76.5t-34 -59t-53 -38t-69 -13.5q-30 0 -56 8t-46 22.5t-31.5 33t-11.5 39.5q0 6 0.5 12.5t1.5 14.5z" />
    <glyph glyph-name="R" unicode="R" horiz-adv-x="708" 
d="M295 355h45q27 0 44 6t27.5 21.5t14.5 41.5t4 66q0 52 -3.5 79.5t-13.5 45.5q-17 33 -57 33h-61v-293zM20 19h15q61 0 61 46v551q0 18 -9.5 25t-33.5 7h-30v19h322q38 0 67 -2t52.5 -6t43 -11.5t39.5 -17.5q38 -20 59.5 -53.5t21.5 -70.5q0 -25 -10.5 -50t-28.5 -42
q-11 -11 -22 -19t-26 -15.5t-35 -15.5t-48 -17q33 -9 57 -17t41 -17t28.5 -20t19.5 -25q6 -10 10.5 -20t6.5 -23t3 -30t1 -41v-71q0 -35 19 -35q20 0 32 35.5t12 90.5v15.5t-1 24.5h13q1 -17 1 -29.5v-19.5q0 -55 -11 -88.5t-36 -53.5q-39 -31 -94 -31q-34 0 -67 13.5
t-54 36.5q-31 32 -31 108q0 5 0.5 18.5t1.5 24.5q1 19 1.5 37t0.5 25q0 83 -59 83h-58v-276q0 -20 9 -31.5t24 -11.5h34v-19h-342v19z" />
    <glyph glyph-name="S" unicode="S" horiz-adv-x="642" 
d="M68 301q2 -18 5.5 -32.5t10 -30t17 -34.5t26.5 -46q49 -84 97 -122.5t102 -38.5q34 0 53 8t33 28q27 36 27 79q0 49 -35 79q-11 9 -19.5 15t-27.5 14t-54 20t-99 33q-68 23 -107 72.5t-39 112.5q0 44 20.5 83t55 68.5t80.5 46.5t97 17q11 0 19.5 -0.5t19.5 -3t28.5 -7.5
t46.5 -13q16 -5 31 -7.5t28 -2.5q40 0 49 39h12v-257h-12q-7 52 -26.5 96t-47 76t-62.5 50t-74 18q-42 0 -69 -28.5t-27 -73.5q0 -22 10.5 -43t29.5 -35q23 -17 43 -23l127 -36q82 -23 124 -74.5t42 -126.5q0 -56 -20 -98t-64 -76q-39 -31 -85.5 -47t-95.5 -16
q-20 0 -32.5 0.5t-31 5t-48 14t-82.5 26.5q-15 5 -31 5q-39 0 -45 -34h-11v300h11z" />
    <glyph glyph-name="T" unicode="T" horiz-adv-x="682" 
d="M27 667h629v-282h-9q-1 48 -16.5 89t-50.5 91q-10 14 -26.5 29t-34 28t-33 21t-22.5 7h-22l1 -588q0 -47 60 -47h32v-17h-399v17h34q66 0 66 56v579h-19q-6 0 -16.5 -5t-23.5 -13.5t-26.5 -18.5t-24.5 -20q-21 -20 -38 -46t-32 -59q-6 -14 -10 -24t-6 -19.5t-2.5 -19.5
t-0.5 -25v-15h-10v282z" />
    <glyph glyph-name="U" unicode="U" horiz-adv-x="698" 
d="M368 649h-24q-23 0 -36 -15t-13 -41v-468q0 -49 27 -70q15 -13 42.5 -20.5t57.5 -7.5q88 0 124 45q7 9 11.5 15.5t6.5 16t2.5 23.5t0.5 38l-1 347q0 32 -13 62.5t-34 47.5q-19 14 -37 20.5t-42 6.5h-5v16h256v-16q-6 1 -12 1h-8q-28 0 -45 -14q-22 -18 -35 -52t-13 -72
v-378q0 -38 -18 -65t-60 -50q-32 -18 -65.5 -26t-76.5 -8q-77 0 -141.5 25.5t-96.5 67.5q-12 16 -16.5 34.5t-4.5 50.5l-2 439q0 20 -12 33.5t-31 13.5h-27v16h341v-16z" />
    <glyph glyph-name="V" unicode="V" horiz-adv-x="687" 
d="M3 665h375v-17h-26q-20 0 -32.5 -9.5t-12.5 -26.5q0 -13 4 -24l134 -478l88 336q8 29 12.5 58.5t4.5 50.5q0 48 -25.5 69.5t-79.5 23.5v17h239v-17q-23 -1 -39 -6.5t-29.5 -20.5t-25.5 -41.5t-26 -68.5l-138 -518h-161l-186 609q-14 45 -76 46v17z" />
    <glyph glyph-name="W" unicode="W" horiz-adv-x="873" 
d="M296 650q-43 -1 -43 -28q0 -5 1 -12.5t3 -14.5l98 -378l53 211l-40 174q-7 28 -15.5 37t-31.5 11v17h293v-17h-25q-19 0 -19 -22v-10.5t2 -8.5l92 -394l67 254q11 42 11 86q0 46 -14.5 70.5t-42.5 24.5h-18v17h203v-17h-22q-19 0 -36 -20q-8 -11 -17 -27t-17.5 -34
t-15.5 -36t-10 -33l-128 -505h-113l-94 396l-105 -396h-106l-153 618q-9 37 -35 37h-15v17h293v-17z" />
    <glyph glyph-name="X" unicode="X" horiz-adv-x="786" 
d="M10 16q16 0 29 3t27.5 13t33 28t45.5 47q9 11 16 19t14 18t16 23t24 34q7 10 13 19t11 19l51 89l-181 290q-22 35 -52 35h-15v15h360v-15h-14q-20 0 -32 -5.5t-12 -15.5q0 -7 13 -30l109 -176q12 18 25 40q11 17 18 30.5t11.5 25t6 22.5t1.5 24q0 23 -6.5 41.5
t-17.5 27.5q-9 7 -20 10.5t-33 5.5v15h271v-15h-25q-40 0 -104 -70q-13 -14 -22.5 -25t-18.5 -23.5t-19 -28.5t-24 -39q-8 -14 -17 -28t-17 -28l222 -359q10 -16 25 -26t28 -10h26v-16h-412v16h54q40 0 40 25q0 4 -3 10.5t-13 22.5l-146 240l-54 -92q-12 -21 -19.5 -49.5
t-7.5 -54.5q0 -46 31 -77q12 -13 27.5 -18t44.5 -7v-16h-308v16z" />
    <glyph glyph-name="Y" unicode="Y" horiz-adv-x="694" 
d="M386 667v-16h-37q-12 0 -21 -5.5t-9 -13.5q0 -10 9 -25l119 -227l65 126q22 42 22 83q0 26 -17 44t-42 18h-18v16h233v-16l-32 1q-27 -1 -61.5 -39t-69.5 -107l-70 -138v-310q0 -23 13 -32.5t42 -9.5h28v-16h-374v16h36q26 0 39.5 12t13.5 33v284l-162 243
q-23 34 -38.5 47t-37.5 16h-14v16h383z" />
    <glyph glyph-name="Z" unicode="Z" horiz-adv-x="601" 
d="M337 654q-37 -4 -65 -10.5t-52 -19t-46 -32t-48 -48.5q-21 -27 -34.5 -47.5t-21.5 -39t-10.5 -37t-2.5 -40.5h-13v288h537v-14l-322 -642q28 0 47 2t34.5 7t32 15.5t40.5 27.5q32 23 60.5 55.5t49 67t31.5 68t8 59.5h12v-316h-569z" />
    <glyph glyph-name="bracketleft" unicode="[" horiz-adv-x="344" 
d="M320 569h-118v-641h118v-98h-234v837h234v-98z" />
    <glyph glyph-name="backslash" unicode="\" horiz-adv-x="405" 
d="M351 -12l-331 681h32l333 -681h-34z" />
    <glyph glyph-name="bracketright" unicode="]" horiz-adv-x="344" 
d="M257 -170h-234v98h118v641h-118v98h234v-837z" />
    <glyph glyph-name="asciicircum" unicode="^" horiz-adv-x="500" 
d="M4 369l192 298h108l193 -298h-105l-142 212l-142 -212h-104z" />
    <glyph glyph-name="underscore" unicode="_" horiz-adv-x="500" 
d="M500 -181h-500v113h500v-113z" />
    <glyph glyph-name="grave" unicode="`" horiz-adv-x="223" 
d="M45 529q-11 4 -19.5 17.5t-8.5 27.5q0 20 13 33.5t31 13.5q22 0 47 -28l98 -109l-2 -9z" />
    <glyph glyph-name="a" unicode="a" horiz-adv-x="531" 
d="M269 266l-11 -10q-11 -9 -17.5 -14.5t-10 -9t-5 -6.5t-4.5 -7q-9 -14 -14 -34t-5 -41v-65q0 -36 5 -51t18 -15t24.5 12t20.5 32t14.5 46t5.5 54v129zM517 123q1 -6 1 -13.5v-9.5q0 -114 -105 -114q-29 0 -54.5 9t-39.5 24q-16 17 -29 60q-11 -27 -22 -45t-24.5 -28.5
t-30.5 -14.5t-41 -4q-69 0 -107 31t-38 88q0 23 8.5 45.5t22.5 39.5q23 26 99 40q43 8 73.5 22.5t42.5 31.5q9 13 14 37.5t5 53.5q0 39 -14.5 55t-49.5 16q-26 0 -47 -8.5t-32 -22.5q23 -2 35 -6t21 -13q14 -12 21 -29t7 -35q0 -35 -25 -58.5t-62 -23.5q-36 0 -61 25t-25 62
q0 27 14.5 49.5t40.5 39t62.5 25.5t80.5 9q119 0 169 -57q9 -9 14 -18t8 -20t4 -27t1 -39v-253q0 -31 17 -31q8 0 16 8t13 21t7 31t3 47h7z" />
    <glyph glyph-name="b" unicode="b" horiz-adv-x="534" 
d="M228 65q0 -39 12 -55.5t41 -16.5q14 0 24.5 11t13.5 28q6 27 6 164q0 65 -2.5 108t-8 69t-14.5 36.5t-23 10.5q-22 0 -35.5 -23t-13.5 -58v-274zM13 659h215v-261q27 36 50 50t56 14q36 0 65.5 -16t50.5 -45.5t32.5 -70.5t11.5 -91q0 -55 -15.5 -102.5t-42.5 -82
t-63.5 -54t-79.5 -19.5q-20 0 -39.5 5.5t-35.5 16.5q-3 2 -5.5 4t-7 6.5t-11.5 12t-19 20.5q-25 25 -46 25q-51 0 -54 -78h-13v601q0 32 -6 42t-26 11h-17v12z" />
    <glyph glyph-name="c" unicode="c" horiz-adv-x="499" 
d="M464 184q1 -7 1 -12v-9q0 -20 -8 -46.5t-20 -46.5q-23 -39 -66.5 -61t-97.5 -22q-50 0 -93.5 18.5t-76 50.5t-51.5 75t-19 91q0 49 20 93t54.5 77.5t79.5 53t96 19.5q38 0 70 -10t55 -27.5t35.5 -42t12.5 -54.5q0 -45 -28 -74t-71 -29q-41 0 -68.5 27.5t-27.5 68.5
q0 38 24.5 64.5t59.5 26.5q7 0 17 -1t21 -3q-28 37 -81 37q-35 0 -53 -24q-14 -19 -22.5 -63.5t-8.5 -103.5q0 -71 4.5 -118.5t14.5 -76.5t27 -41t42 -12q34 0 65 17t51 46q16 23 23 47t9 65h10z" />
    <glyph glyph-name="d" unicode="d" horiz-adv-x="559" 
d="M254 445q-17 0 -25 -23q-3 -8 -5.5 -32.5t-4 -61t-2.5 -83.5t-1 -99q0 -39 1 -63.5t4.5 -38t9 -18t14.5 -4.5q15 0 27 14.5t21 41t14 62.5t5 79q0 39 -0.5 66t-2 46.5t-4 33t-6.5 26.5q-18 54 -45 54zM313 610q0 21 -15 31q-3 2 -5.5 3t-7.5 2.5t-14.5 3t-27.5 4.5l-7 2
v11h248v-606q0 -27 6.5 -37.5t23.5 -10.5h18v-13h-223v81q-10 -25 -17 -37t-17 -22q-14 -13 -33.5 -20.5t-41.5 -7.5q-34 0 -63.5 17.5t-51 48t-33.5 72t-12 90.5q0 50 14.5 96t38.5 80.5t55.5 55t66.5 20.5q31 0 53.5 -16.5t44.5 -55.5v208z" />
    <glyph glyph-name="e" unicode="e" horiz-adv-x="506" 
d="M307 242v80v39q0 30 -1.5 43.5t-5.5 21.5q-11 21 -32 21q-53 0 -53 -141l-2 -64h94zM213 190q0 -35 1 -58t3 -39.5t6.5 -29.5t12.5 -28q17 -34 64 -34q35 0 64.5 15t52.5 44q18 23 25.5 44.5t11.5 59.5h13q-3 -22 -6.5 -38t-8 -29t-10.5 -24t-14 -23q-49 -68 -155 -68
q-54 0 -98 16.5t-75.5 46.5t-49 71.5t-17.5 92.5q0 54 18 100.5t49 80.5t73.5 53.5t91.5 19.5q54 0 97.5 -23t72.5 -68q21 -32 29 -63.5t9 -80.5h-261z" />
    <glyph glyph-name="f" unicode="f" horiz-adv-x="373" 
d="M10 12h33q35 0 35 31v389h-48v17h48v59q0 87 70 123q38 19 84 29.5t93 10.5q63 0 102 -28t39 -73q0 -39 -25.5 -65.5t-63.5 -26.5q-37 0 -62.5 24.5t-25.5 60.5q0 34 22 58q9 11 24.5 16.5t41.5 10.5q-17 4 -27 5.5t-19 1.5q-76 0 -76 -78v-128h92v-17h-92v-375
q0 -18 8 -31.5t19 -13.5h56v-13h-328v13z" />
    <glyph glyph-name="g" unicode="g" horiz-adv-x="561" 
d="M233 275q-2 -54 10 -78.5t38 -24.5q15 0 26.5 5.5t16.5 13.5q5 10 7.5 43t2.5 82q0 63 -11.5 92.5t-37.5 29.5q-52 0 -52 -89v-74zM129 -36q-4 -2 -5 -3t-5 -4q-16 -11 -22.5 -25t-6.5 -37q0 -38 24 -59q14 -11 50 -17.5t84 -6.5h69q52 0 80.5 18.5t28.5 52.5
q0 23 -18 40q-8 7 -28.5 14t-50.5 12t-67 8t-79 4zM336 106q64 0 110 -14.5t69 -41.5q34 -40 34 -95q0 -159 -268 -159q-75 0 -132.5 10t-92.5 30q-17 10 -26.5 26t-9.5 34q0 27 19 45.5t62 33.5q-32 23 -45 44.5t-13 51.5q0 41 27 71q13 14 32.5 24.5t56.5 21.5
q-48 28 -67 53.5t-19 62.5q0 33 17.5 61t49.5 46q31 17 70 28t72 11q8 0 20.5 -1t29.5 -3q-7 20 -9.5 31t-2.5 22q0 21 8 39t21.5 31.5t32.5 21t40 7.5q19 0 36 -6.5t29.5 -17.5t20 -25.5t7.5 -31.5q0 -30 -22 -51t-54 -21q-16 0 -30.5 6t-25 16.5t-17 24t-6.5 29.5
q0 12 4.5 24t16.5 32q-29 -22 -39 -39t-10 -43t15 -42q3 -3 5 -4.5t8 -5t17 -9.5t31 -16q39 -20 60.5 -49t21.5 -64q0 -30 -15.5 -56.5t-42.5 -46t-63.5 -31t-77.5 -11.5q-35 0 -86 9q-8 1 -14 1.5t-11 0.5q-14 0 -22 -7.5t-8 -19.5q0 -20 22 -29.5t72 -9.5z" />
    <glyph glyph-name="h" unicode="h" horiz-adv-x="562" 
d="M10 13h17q45 0 45 33l1 562q0 24 -6 31.5t-23 7.5h-26v16h220v-258q25 38 51 52.5t68 14.5q34 0 66.5 -12.5t53.5 -33.5q11 -11 16.5 -30.5t5.5 -51.5v-298q0 -14 7.5 -23.5t18.5 -9.5h29v-13h-262v13h19q20 0 20 33v345q0 24 -7 34t-24 10q-26 0 -44 -26.5t-18 -64.5
v-298q0 -21 4.5 -27t21.5 -6h4v-13h-258v13z" />
    <glyph glyph-name="i" unicode="i" horiz-adv-x="325" 
d="M160 642q42 0 67.5 -24t25.5 -64q0 -38 -26.5 -61.5t-68.5 -23.5t-67.5 24t-25.5 63t25.5 62.5t69.5 23.5zM316 0h-306v13h16q50 0 50 49v336q0 35 -44 35h-22v14h243v-395q0 -24 7.5 -31.5t30.5 -7.5h25v-13z" />
    <glyph glyph-name="j" unicode="j" horiz-adv-x="310" 
d="M160 645q41 0 66.5 -24t25.5 -62q0 -37 -27 -60t-71 -23t-68.5 22t-24.5 62q0 39 26.5 62t72.5 23zM69 395q0 21 -9 29.5t-31 8.5h-25v14h240v-491q0 -71 -51 -111t-141 -40q-60 0 -96 24t-36 64q0 34 23 56t58 22q40 0 65 -22t25 -57q0 -22 -7.5 -38t-27.5 -33
q35 1 51 17.5t16 54.5q0 32 -11.5 47.5t-42.5 26.5v428z" />
    <glyph glyph-name="k" unicode="k" horiz-adv-x="614" 
d="M248 668v-411l64 87q23 29 23 50q0 17 -14 28.5t-36 11.5h-22v15h241v-15h-27q-13 0 -25 -3t-25.5 -10t-29.5 -19t-37 -30q-10 -9 -16 -16.5t-6 -11.5q0 -2 3.5 -8.5t11.5 -19.5l171 -261q27 -41 62 -41h26v-14h-303v14q31 4 31 17q0 7 -14 30l-78 126v-149q0 -24 37 -24
v-14h-275v14h24q25 0 35.5 18.5t10.5 62.5v490q0 41 -9.5 55t-36.5 14h-24v14h238z" />
    <glyph glyph-name="l" unicode="l" horiz-adv-x="334" 
d="M261 667v-603q0 -50 35 -50l31 1v-15h-304v15l26 -1q25 2 32 10.5t8 35.5l-1 557q0 33 -44 33h-34v17h251z" />
    <glyph glyph-name="m" unicode="m" horiz-adv-x="824" 
d="M241 446v-54q13 20 25.5 33t27.5 21t33.5 11.5t42.5 3.5q25 0 44 -3.5t33 -11.5t24.5 -21t19.5 -33q9 20 16.5 30t20.5 18q18 11 42 17.5t49 6.5q34 0 65 -11.5t48 -30.5q28 -30 28 -114v-251q0 -23 6.5 -33t22.5 -10h28l-1 -14h-255v14h11q20 0 20 29v315q0 65 -45 65
q-22 0 -37 -19q-4 -5 -8 -13.5t-4 -10.5v-337q0 -11 7.5 -20t17.5 -9h16v-14h-238h-10v14h14q11 0 18 10.5t7 24.5v309q0 56 -36 56q-10 0 -19.5 -6t-17 -15.5t-12 -22t-4.5 -25.5v-302q0 -16 7.5 -22.5t25.5 -6.5h3v-14h-267v14h35q13 0 22.5 13t9.5 30v323q0 53 -42 53
h-25v13h231z" />
    <glyph glyph-name="n" unicode="n" horiz-adv-x="564" 
d="M10 14h21q21 0 30 9.5t9 32.5v325q0 29 -8.5 39.5t-30.5 10.5h-16v16h219v-49q28 36 55.5 50.5t69.5 14.5q67 0 105 -35t38 -97v-274q0 -26 5.5 -35t21.5 -9h27v-13h-262v13h17q10 0 16 9.5t6 25.5v313q0 66 -36 66q-25 0 -42 -22t-17 -54v-307q0 -17 3.5 -24t14.5 -7h19
v-13h-265v14z" />
    <glyph glyph-name="o" unicode="o" horiz-adv-x="537" 
d="M322 217v95q0 34 -5 63.5t-13 43.5q-5 8 -15 14t-20 6q-51 0 -55 -89q-2 -34 -2.5 -72t0 -74t2 -67t3.5 -52q5 -51 16 -69.5t34 -18.5q12 0 23 6t16 15q8 14 12 47.5t4 83.5v68zM275 450q46 0 87.5 -18.5t72.5 -50t49.5 -74t18.5 -89.5q0 -103 -93 -176q-69 -55 -143 -55
q-44 0 -86 19t-75 50t-53 70.5t-20 81.5q0 51 19 95t51.5 76.5t76.5 51.5t95 19z" />
    <glyph glyph-name="p" unicode="p" horiz-adv-x="557" 
d="M254 93q0 -8 5 -25t12 -31q11 -24 30 -24q11 0 20 10.5t11 27.5q2 10 3.5 29t3 42t2 47.5t0.5 45.5q0 57 -6 106.5t-16 73.5q-7 15 -23 15q-7 0 -14.5 -5t-13.5 -13.5t-10 -18t-4 -18.5v-262zM3 -143h43q20 0 27 7.5t7 29.5v492q0 24 -9 35t-30 11h-25v14h238v-53
q25 35 48 48.5t55 13.5q35 0 64.5 -17.5t50.5 -48.5t33 -73.5t12 -93.5q0 -54 -12 -99t-34 -78t-51.5 -51.5t-65.5 -18.5q-31 0 -53.5 13.5t-48.5 48.5l2 -143q0 -37 26 -37h66v-16h-343v16z" />
    <glyph glyph-name="q" unicode="q" horiz-adv-x="556" 
d="M307 326q0 10 -2 22.5t-6 25t-8.5 23.5t-8.5 19q-5 6 -12.5 10.5t-15.5 4.5q-12 0 -21 -13.5t-13 -37.5q-2 -14 -3.5 -27.5t-2.5 -36t-1 -57v-89.5q0 -79 7.5 -112t26.5 -33q10 0 21 9t19.5 23t14 31.5t5.5 34.5v203zM307 455h220v-16h-19q-18 0 -24.5 -6.5t-6.5 -25.5
v-493q1 -32 7 -43t26 -12l29 -1v-14h-314v14l46 1q22 0 29 7.5t7 32.5v168q-23 -46 -45.5 -63.5t-60.5 -17.5q-35 0 -64.5 16.5t-51 45t-33.5 68t-12 86.5q0 65 24 126.5t64 99.5q20 19 40 27.5t44 8.5q33 0 55.5 -15.5t39.5 -50.5v57z" />
    <glyph glyph-name="r" unicode="r" horiz-adv-x="499" 
d="M10 16h24q23 0 31.5 9t8.5 34v349q0 10 -9 16t-24 6h-19l-1 17h232v-54q23 38 48 54t63 16q48 0 78.5 -30.5t30.5 -78.5q0 -42 -25 -68.5t-64 -26.5q-37 0 -61.5 24.5t-24.5 61.5q0 38 22.5 61t58.5 23q6 0 15.5 -1t21.5 -3q-9 11 -21 15t-32 4q-22 0 -41 -8.5
t-33.5 -23.5t-22.5 -35t-8 -42l1 -297q0 -22 28 -22h36v-16h-313v16z" />
    <glyph glyph-name="s" unicode="s" horiz-adv-x="464" 
d="M33 206h9q15 -47 37.5 -85.5t48.5 -66t55.5 -42.5t59.5 -15q27 0 43 15t16 40q0 26 -16.5 43t-54.5 30q-75 25 -113.5 46.5t-54.5 49.5q-22 38 -22 74q0 37 20.5 74t50.5 56q20 12 52.5 20.5t59.5 8.5q38 0 83 -16q24 -9 41 -9q13 0 27 18h7l2 -157h-9q-11 24 -19 39.5
t-15 26.5t-13.5 19.5t-14.5 17.5q-44 47 -83 47q-24 0 -40.5 -17t-16.5 -43t25 -43.5t87 -35.5q50 -14 83.5 -36t45.5 -48q8 -16 12 -37.5t4 -42.5q0 -40 -19 -73.5t-53 -53.5q-23 -14 -53 -23t-51 -9q-42 0 -105 24q-39 14 -63 14q-10 0 -19 -5.5t-26 -19.5h-8v215z" />
    <glyph glyph-name="t" unicode="t" horiz-adv-x="352" 
d="M27 445q42 -1 81 12.5t68 36.5t45.5 53t15.5 63h10v-165h75v-12h-75v-355q0 -29 5.5 -41.5t17.5 -12.5q47 0 47 137h8v-18q0 -54 -11 -85t-37 -51q-17 -12 -34 -17.5t-41 -5.5q-32 0 -62.5 11t-45.5 28q-19 20 -19 84v326h-48v12z" />
    <glyph glyph-name="u" unicode="u" horiz-adv-x="555" 
d="M10 450h214v-367q0 -23 7.5 -32.5t24.5 -9.5q26 0 42.5 36t16.5 95v238q0 28 -28 28l-23 -1v13h218v-396q0 -41 24 -41h32v-13h-224v84q-11 -25 -22 -41.5t-24.5 -26.5t-30.5 -14t-40 -4q-42 0 -75 17t-50 49q-5 8 -7.5 15t-4 16t-2 21t-0.5 32v259q0 19 -5 25t-21 6
l-22 -1v13z" />
    <glyph glyph-name="v" unicode="v" horiz-adv-x="544" 
d="M3 446h297v-12h-16q-17 0 -23 -3.5t-6 -14.5q0 -7 3 -14l96 -297l55 193q11 41 11 64q0 31 -16 50.5t-42 20.5l-16 1v12h195v-12h-17q-14 0 -28.5 -10.5t-28.5 -29t-26 -43.5t-20 -53l-89 -308h-126l-149 412q-7 17 -14 24.5t-18 7.5h-22v12z" />
    <glyph glyph-name="w" unicode="w" horiz-adv-x="738" 
d="M3 446h256v-11q-23 -1 -23 -19q0 -3 0.5 -7.5t2.5 -8.5l67 -248l44 167l-26 94q-15 16 -19.5 19t-15.5 3h-5v11h249v-11h-10q-22 0 -22 -17q0 -6 3 -18l66 -248l42 145q9 30 9 63q0 32 -12.5 53.5t-32.5 21.5h-23v11h181v-11h-21q-14 0 -24 -10q-8 -7 -16.5 -20.5
t-17 -30.5t-16.5 -37t-14 -40l-92 -306h-89l-88 306l-84 -306h-88l-111 392q-14 52 -48 52h-22v11z" />
    <glyph glyph-name="x" unicode="x" horiz-adv-x="595" 
d="M3 12q11 0 20 1.5t20 8.5t26.5 20.5t41.5 36.5q17 16 31.5 31t28 30t27.5 31t30 36l-116 199q-8 14 -20 22.5t-23 8.5h-25v12h307v-12q-42 0 -42 -22q0 -8 10 -25l53 -89l35 49q13 19 13 48q0 20 -8.5 28t-33.5 11v12h169v-12q-24 3 -51 -15.5t-68 -64.5l-50 -66
l130 -229q9 -15 17 -24.5t17 -15t21 -7.5t29 -3v-12h-313v12q40 1 40 27q0 13 -10 30l-76 126q-24 -29 -39 -48.5t-23 -34t-11 -26.5t-3 -25q0 -26 16.5 -36.5t54.5 -12.5v-12h-225v12z" />
    <glyph glyph-name="y" unicode="y" horiz-adv-x="559" 
d="M310 447v-14h-19q-11 0 -18.5 -4.5t-7.5 -11.5q0 -8 8 -29l97 -242l42 130q8 25 12.5 50.5t4.5 46.5q0 59 -52 60v14h178v-14h-8q-29 0 -45 -17q-10 -11 -21 -27.5t-21 -34.5t-18.5 -37t-13.5 -34l-90 -277q-10 -31 -18.5 -53.5t-16 -39.5t-15 -29t-15.5 -22
q-19 -21 -45.5 -33t-55.5 -12q-47 0 -77 29t-30 74q0 38 25 63.5t61 25.5q19 0 35 -7t28 -19t19 -28.5t7 -35.5q0 -33 -18 -52t-63 -31q8 -2 13 -2.5t10 -0.5q20 0 42.5 10.5t36.5 27.5q16 18 28 43.5t30 78.5h-68l-185 404q-17 36 -45 36h-18v14h307z" />
    <glyph glyph-name="z" unicode="z" horiz-adv-x="486" 
d="M242 432h-22q-50 0 -109 -56q-13 -13 -22.5 -25t-17 -26t-13 -31t-10.5 -40h-9v192h410l-228 -428h23q20 0 41 11t49 35q24 20 41 38t30.5 37t23.5 41t20 49h10v-229h-439z" />
    <glyph glyph-name="braceleft" unicode="{" horiz-adv-x="344" 
d="M217 374q0 -26 -2.5 -44t-9.5 -32t-18.5 -26t-29.5 -24q17 -11 28.5 -22.5t18.5 -26t10 -33t3 -43.5v-127v-35t0.5 -18.5t1.5 -9.5t3 -7q6 -14 22.5 -19t52.5 -5h7.5t11.5 1v-87q-26 -2 -35 -2h-19q-83 0 -118 33t-35 111v156q0 45 -12 64.5t-43 25.5v89q32 7 43.5 26
t11.5 64v157q0 77 35 110t118 33h22.5t31.5 -2v-87q-6 1 -11.5 1h-7.5q-49 0 -63 -10q-6 -4 -9.5 -7.5t-5 -11.5t-2 -23t-0.5 -41v-128z" />
    <glyph glyph-name="bar" unicode="|" horiz-adv-x="500" 
d="M300 667v-834h-100v834h100z" />
    <glyph glyph-name="braceright" unicode="}" horiz-adv-x="344" 
d="M127 123q0 25 2.5 43.5t9.5 32.5t18.5 26t29.5 24q-17 11 -28.5 22.5t-18.5 26t-10 33t-3 43.5v127v34.5t-0.5 19t-1.5 9.5t-3 7q-6 14 -22.5 19t-53.5 5h-7t-11 -1v87q26 2 35 2h19q83 0 118 -33t35 -111v-156q0 -45 12 -64.5t43 -25.5v-89q-32 -7 -43.5 -26t-11.5 -64
v-157q0 -78 -35 -110.5t-119 -32.5q-11 0 -22.5 0.5t-30.5 1.5v87q6 -1 11 -1h7q50 0 64 10q6 4 9.5 7.5t5 11.5t2 23t0.5 41v128z" />
    <glyph glyph-name="asciitilde" unicode="~" horiz-adv-x="500" 
d="M498 613q-19 -32 -35.5 -53.5t-33 -35t-34 -19.5t-37.5 -6q-11 0 -19 1t-22.5 5.5t-40.5 15t-73 30.5q-23 10 -34 13t-23 3q-26 0 -45.5 -18t-46.5 -67l-52 59q37 66 69.5 92.5t73.5 26.5q21 0 47 -8t75 -29q24 -11 39 -17t24.5 -9t15.5 -4t12 -1q23 0 42.5 17.5
t45.5 61.5z" />
    <glyph glyph-name="uni00A0" unicode="&#xa0;" horiz-adv-x="173" 
 />
    <glyph glyph-name="exclamdown" unicode="&#xa1;" horiz-adv-x="349" 
d="M186 459q43 0 70.5 -28t27.5 -70q0 -21 -8 -39.5t-21.5 -32t-31.5 -21t-39 -7.5q-42 0 -70 29t-28 72t28 70t72 27zM185 237q1 -30 3 -51t8 -41.5t17.5 -43.5t29.5 -56q26 -48 36 -78t10 -61q0 -56 -31 -90.5t-82 -34.5t-83.5 34t-32.5 87q0 56 43 128q14 23 27.5 45.5
t26.5 45.5q11 21 15.5 46.5t6.5 69.5h6z" />
    <glyph glyph-name="cent" unicode="&#xa2;" 
d="M361 513q15 -4 24 -7t15.5 -7t13 -10t15.5 -16q-7 54 -56 70zM300 365q-11 23 -15.5 36.5t-4.5 26.5q0 58 68 84l14 34q-13 5 -20.5 6.5t-17.5 1.5q-29 0 -49.5 -12.5t-33 -40t-18.5 -71.5t-6 -106q0 -24 0.5 -42t2.5 -34.5t5.5 -34t8.5 -39.5zM398 654l10 1l-33 -100
q87 -39 87 -121q0 -42 -26.5 -70t-66.5 -28q-15 0 -27.5 4.5t-32.5 18.5l-69 -200q8 -28 22 -39.5t40 -11.5q78 0 129 63q9 10 14.5 20.5t9.5 23t6.5 30t5.5 43.5h11v-11q0 -40 -15 -74.5t-40.5 -60t-60.5 -40t-75 -14.5q-13 0 -28 1.5t-40 6.5l-35 -106h-11l36 110
q-29 13 -47.5 26t-35.5 32q-29 32 -45 75.5t-16 90.5q0 52 17.5 96.5t48 77.5t72.5 51.5t91 18.5q15 0 30 -1.5t41 -6.5z" />
    <glyph glyph-name="sterling" unicode="&#xa3;" 
d="M113 103q-35 0 -56 -16.5t-21 -42.5q0 -23 21 -39.5t50 -16.5q17 0 33.5 6.5t29.5 17t21 24.5t8 28q0 9 -14 16q-25 14 -40 18.5t-32 4.5zM64 323v12h76q-12 38 -17 62t-5 44q0 49 18 93t48 77t70 52.5t85 19.5q61 0 99.5 -35t38.5 -90q0 -42 -22.5 -67t-58.5 -25
q-35 0 -59 23t-24 58q0 34 22 57.5t54 23.5q13 0 24.5 -4.5t30.5 -15.5q-3 15 -6.5 22.5t-11.5 14.5q-26 24 -61 24q-43 0 -68 -32t-25 -86q0 -15 0.5 -25t3 -26t8 -43.5t15.5 -76.5l4 -45h112v-12l-111 1q1 -16 1 -26.5v-16.5q0 -18 -1.5 -34t-6 -34t-12 -40.5t-19.5 -54.5
q39 -4 61 -5.5t40 -1.5q71 0 104 33q14 14 19.5 30t5.5 47v14h8q0 -65 -10.5 -112.5t-34.5 -93.5q-33 -59 -96 -59q-17 0 -31 3.5t-29 12.5t-33 25t-43 42q-21 -21 -36.5 -34.5t-29.5 -21.5t-27 -11t-28 -3q-35 0 -56 17.5t-21 45.5q0 37 39.5 57.5t111.5 20.5h19
q-2 21 -4 36t-8 34.5t-17 49t-30 79.5h-76z" />
    <glyph glyph-name="currency" unicode="&#xa4;" horiz-adv-x="667" 
d="M335 516q-30 0 -55.5 -11t-44.5 -30t-30 -44.5t-11 -55.5q0 -29 11 -54.5t30 -44.5t44 -30t54 -11t54.5 11t44 30t29.5 45t11 55q0 28 -11 53.5t-29.5 45t-43.5 30.5t-53 11zM126 238q-45 64 -45 138q0 38 11 70.5t34 67.5l-103 103l67 67l103 -103q36 24 69 34.5
t72 10.5q38 0 70.5 -10.5t67.5 -33.5l102 101l66 -66l-101 -102q25 -37 35.5 -69t10.5 -70t-10.5 -70t-33.5 -67l102 -102l-66 -68l-102 102q-67 -46 -142 -46q-38 0 -70.5 10.5t-70.5 34.5l-102 -101l-66 67z" />
    <glyph glyph-name="yen" unicode="&#xa5;" 
d="M463 506q22 42 22 83q0 26 -17 44t-42 18h-18v16h233v-16l-32 1q-27 -1 -61.5 -39.5t-69.5 -106.5l-36 -71h81v-12h-87l-28 -55v-9h115v-12h-115v-289q0 -23 13 -32.5t42 -9.5h28v-16h-373v16h36q25 0 39 12t14 33v286h-133v12h123l-42 64h-81v12h73l-102 153
q-23 34 -38.5 47.5t-38.5 15.5h-14v16h383v-16h-36q-13 0 -22 -5.5t-9 -13.5q0 -9 9 -25l119 -227z" />
    <glyph glyph-name="brokenbar" unicode="&#xa6;" horiz-adv-x="500" 
d="M199 667h102v-296h-102v296zM199 192h102v-359h-102v359z" />
    <glyph glyph-name="section" unicode="&#xa7;" horiz-adv-x="573" 
d="M369 266q25 26 25 57q0 37 -35 59q-11 6 -19.5 10.5t-20 9t-28.5 9t-43 10.5q-12 2 -23 5l-22 6q-25 -26 -25 -58q0 -17 9 -32t26 -26q10 -6 19 -10.5t20.5 -9t28.5 -9t43 -10.5q12 -3 23 -5.5t22 -5.5zM84 145q7 -39 26.5 -72t47 -57t62.5 -37.5t73 -13.5q43 0 70 21.5
t27 56.5q0 15 -11 30t-29 26q-8 5 -15 8t-23 7.5t-46.5 11t-85.5 18.5q-166 35 -166 150q0 54 35 93.5t98 58.5q-63 19 -98.5 54t-35.5 79q0 42 29 76.5t82 56.5q33 14 69.5 21.5t71.5 7.5q11 0 19 -0.5t19 -2t28.5 -5.5t48.5 -10q16 -3 31.5 -5t27.5 -2q41 0 49 29h12v-192
h-12q-7 39 -26.5 72t-47 56.5t-62.5 37t-73 13.5q-43 0 -70 -21.5t-27 -56.5q0 -15 11 -30t29 -26q8 -5 15 -8t23 -7.5t46 -11t86 -18.5q166 -35 166 -150q0 -53 -36 -93.5t-97 -57.5q63 -19 98.5 -54t35.5 -80q0 -41 -29 -76t-82 -57q-33 -14 -69.5 -21.5t-72.5 -7.5
q-11 0 -18.5 0.5t-19 2.5t-29 5.5t-47.5 10.5q-16 3 -31.5 5t-27.5 2q-41 0 -49 -29h-12v192h12z" />
    <glyph glyph-name="dieresis" unicode="&#xa8;" horiz-adv-x="288" 
d="M222 578q22 0 36.5 -15.5t14.5 -38.5q0 -22 -15 -36.5t-38 -14.5q-22 0 -37 16t-15 39q0 21 15.5 35.5t38.5 14.5zM71 576q23 0 37.5 -15t14.5 -38t-15 -38t-38 -15t-38 15t-15 38t15.5 38t38.5 15z" />
    <glyph glyph-name="copyright" unicode="&#xa9;" horiz-adv-x="768" 
d="M536 341h-7q-5 39 -18.5 73t-32 59.5t-41 40t-45.5 14.5q-40 0 -61.5 -51.5t-21.5 -147.5q0 -100 23 -147t73 -47q30 0 55 12t44 33.5t29.5 50.5t10.5 63h7v-9q0 -19 -5.5 -40t-15.5 -41q-22 -42 -57 -60.5t-91 -18.5q-45 0 -83 14.5t-65.5 40.5t-43 61.5t-15.5 77.5
t17.5 81t46 69t66 48.5t76.5 18.5q15 0 29.5 -3.5t31.5 -11.5q17 -7 30 -11t21 -4q15 0 24 7.5t11 19.5h8v-192zM386 616q-59 0 -110.5 -22t-89.5 -60.5t-60 -90t-22 -110.5t22 -110.5t60 -89.5t88.5 -60.5t108.5 -22.5q57 0 107.5 22.5t88 60.5t59.5 89.5t22 110.5
q0 58 -21.5 109.5t-59 90t-87.5 61t-106 22.5zM389 683q71 0 133.5 -27.5t109.5 -75t74.5 -111t27.5 -135.5q0 -73 -27.5 -136.5t-74.5 -111t-111 -75t-136 -27.5t-136 27.5t-111.5 74.5t-75 111t-27.5 136q0 73 27.5 137t75.5 111.5t112.5 74.5t138.5 27z" />
    <glyph glyph-name="ordfeminine" unicode="&#xaa;" horiz-adv-x="333" 
d="M184 560q-10 -11 -19 -18q-21 -17 -27.5 -29.5t-6.5 -37.5v-39q0 -22 3 -31t11 -9q15 0 27 26t12 61v77zM320 449q0 -69 -63 -69q-31 0 -47 12.5t-26 43.5q-14 -32 -28 -43.5t-43 -11.5q-42 0 -64.5 18.5t-22.5 52.5q0 29 19 51q13 15 59 24q47 9 64 27t17 60
q0 23 -8.5 32.5t-29.5 9.5q-33 0 -48 -18q51 -3 51 -50q0 -20 -15 -34.5t-37 -14.5t-37 15t-15 37q0 33 33 53.5t86 20.5q72 0 101 -34q10 -11 13 -22.5t3 -39.5v-152q0 -19 10 -19q22 0 24 65h4v-14zM324 273h-304v54h304v-54z" />
    <glyph glyph-name="guillemotleft" unicode="&#xab;" horiz-adv-x="453" 
d="M206 231l161 221l86 -71l-111 -150l110 -151l-85 -69zM0 230l161 221l85 -69l-110 -152l111 -151l-86 -68z" />
    <glyph glyph-name="logicalnot" unicode="&#xac;" horiz-adv-x="500" 
d="M408 191h-401v85h486v-276h-85v191z" />
    <glyph glyph-name="uni00AD" unicode="&#xad;" horiz-adv-x="337" 
d="M53 190q6 84 86 84h12t12.5 -1t19.5 -3t35 -6q10 -2 20 -2q17 0 24.5 4.5t13.5 16.5h7q-8 -24 -15 -40t-17 -25t-23 -12.5t-31 -3.5q-10 0 -21.5 1.5t-23.5 3.5q-20 4 -35.5 6t-25.5 2q-25 0 -31 -25h-7z" />
    <glyph glyph-name="registered" unicode="&#xae;" horiz-adv-x="768" 
d="M366 347h26q31 0 41 15.5t10 61.5q0 51 -9 70.5t-33 19.5h-35v-167zM210 156h8q35 0 35 26v314q0 10 -5.5 14t-19.5 4h-17v11h184q43 0 67.5 -4.5t47.5 -16.5q21 -12 33.5 -31t12.5 -40q0 -32 -22 -52.5t-74 -37.5q30 -8 48.5 -16t29 -20t14 -29.5t3.5 -44.5v-41
q0 -20 11 -20t18 20t7 52v9t-1 14h8v-23v-4q0 -100 -80 -100q-20 0 -39 7.5t-31 20.5q-17 20 -17 63v10t1 14l1 35q0 48 -34 48h-33v-158q0 -24 19 -24h19v-11h-194v11zM386 616q-59 0 -110.5 -22t-89.5 -60.5t-60 -90t-22 -110.5t22 -110.5t60 -89.5t88.5 -60.5
t108.5 -22.5q57 0 107.5 22.5t88 60.5t59.5 89.5t22 110.5q0 58 -21.5 109.5t-59 90t-87.5 61t-106 22.5zM389 683q71 0 133.5 -27.5t109.5 -75t74.5 -111t27.5 -135.5q0 -73 -27.5 -136.5t-74.5 -111t-111 -75t-136 -27.5t-136 27.5t-111.5 74.5t-75 111t-27.5 136
q0 73 27.5 137t75.5 111.5t112.5 74.5t138.5 27z" />
    <glyph glyph-name="macron" unicode="&#xaf;" horiz-adv-x="277" 
d="M260 537v-40h-243v40h243z" />
    <glyph glyph-name="degree" unicode="&#xb0;" horiz-adv-x="500" 
d="M251 614q-38 0 -63.5 -25.5t-25.5 -62.5q0 -36 25.5 -61.5t62.5 -25.5q36 0 61.5 25.5t25.5 62.5q0 18 -7 33.5t-18.5 27.5t-27 19t-33.5 7zM252 683q33 0 62.5 -12.5t51 -33.5t34.5 -49.5t13 -60.5q0 -33 -13 -61.5t-35 -49.5t-51.5 -33.5t-63.5 -12.5t-63.5 12.5
t-51.5 33.5t-35 49.5t-13 60.5q0 33 13 61.5t35 50t52 33.5t65 12z" />
    <glyph glyph-name="plusminus" unicode="&#xb1;" horiz-adv-x="500" 
d="M493 142v-95h-486v95h486zM202 459v184h95v-184h196v-95h-196v-178h-95v178h-195v95h195z" />
    <glyph glyph-name="uni00B2" unicode="&#xb2;" horiz-adv-x="336" 
d="M41 341q-4 14 -5.5 22t-1.5 16q0 17 9 38.5t23 33.5q5 5 9 8.5t11 7.5t18.5 9.5t31.5 15.5q29 14 41.5 33.5t12.5 51.5q0 77 -61 77q-29 0 -49.5 -16.5t-20.5 -40.5q11 9 18 12t18 3q23 0 36 -10.5t13 -29.5q0 -20 -13.5 -31.5t-36.5 -11.5t-38.5 13.5t-15.5 33.5
q0 38 33.5 62.5t85.5 24.5q59 0 95.5 -23t36.5 -61q0 -33 -26.5 -53t-93.5 -36q-34 -8 -54 -15.5t-33 -16.5q-19 -14 -31 -34.5t-12 -40.5v-5t1 -8l1 1q11 26 40.5 40t74.5 14h18t20 -1q12 -1 23.5 -1.5t16.5 -0.5q32 0 45 9.5t16 36.5h5q-3 -39 -7.5 -59t-12.5 -34
q-11 -19 -30.5 -29t-43.5 -10q-12 0 -20 1t-16.5 5t-20.5 12t-32 23q-15 10 -33 10t-29.5 -8t-11.5 -22q0 -2 0.5 -6.5t1.5 -9.5h-6z" />
    <glyph glyph-name="uni00B3" unicode="&#xb3;" horiz-adv-x="336" 
d="M146 519q23 0 33 11.5t10 39.5q0 48 -10 66t-36 18q-46 0 -58 -28q13 4 21 4q19 0 31.5 -12t12.5 -29t-13.5 -28.5t-34.5 -11.5q-22 0 -35 12t-13 31q0 31 30 50t80 19q52 0 84.5 -20.5t32.5 -52.5q0 -23 -18.5 -39.5t-59.5 -29.5q57 -14 81.5 -34t24.5 -51
q0 -20 -12 -38t-32.5 -31.5t-48.5 -21.5t-59 -8q-54 0 -90.5 22.5t-36.5 55.5q0 23 16 39t40 16q25 0 38.5 -11t13.5 -31q0 -21 -12.5 -33t-35.5 -12q-8 0 -14.5 2t-17.5 7q17 -48 85 -48q20 0 31 4.5t20 15.5q8 10 10.5 23t2.5 43q0 47 -14 66t-49 19h-25v6h27z" />
    <glyph glyph-name="acute" unicode="&#xb4;" horiz-adv-x="228" 
d="M17 477l104 117q23 27 46 27q19 0 32 -13.5t13 -33.5q0 -17 -12.5 -31.5t-35.5 -22.5l-144 -49z" />
    <glyph glyph-name="mu" unicode="&#xb5;" horiz-adv-x="500" 
d="M32 487h116v-261q0 -35 3 -52.5t11 -33.5q28 -55 89 -55q101 0 101 145v257h116v-487h-116v59q-20 -39 -43.5 -55.5t-58.5 -16.5t-58 15t-44 52v-226h-116v659z" />
    <glyph glyph-name="paragraph" unicode="&#xb6;" horiz-adv-x="607" 
d="M255 322h-13q-39 0 -72 12.5t-56.5 35t-36.5 53.5t-13 69q0 52 22.5 91.5t64.5 60.5q23 11 61.5 18t81.5 7h246v-57h-48v-703h-75v703h-86v-703h-76v413z" />
    <glyph glyph-name="periodcentered" unicode="&#xb7;" horiz-adv-x="173" 
d="M138 223h-103v100h103v-100z" />
    <glyph glyph-name="cedilla" unicode="&#xb8;" horiz-adv-x="279" 
d="M113 5h13v-59q25 3 46 3q38 0 64 -21.5t26 -52.5q0 -35 -32.5 -56t-88.5 -21q-19 0 -34.5 2.5t-30 8t-29 14.5t-30.5 23l8 14q24 -17 45.5 -24.5t48.5 -7.5q30 0 50 12t20 31q0 14 -12 23.5t-30 9.5q-6 0 -15 -1t-19 -3v105z" />
    <glyph glyph-name="uni00B9" unicode="&#xb9;" horiz-adv-x="336" 
d="M76 346h12q29 0 29 31v204q0 18 -6.5 23t-30.5 5v5q15 2 33.5 7.5t36.5 13.5t33.5 16.5t24.5 16.5h5v-299q0 -23 27 -23h18v-6h-182v6z" />
    <glyph glyph-name="ordmasculine" unicode="&#xba;" horiz-adv-x="352" 
d="M208 517v57q0 75 -32 75q-30 0 -33 -53q-1 -20 -1 -42.5v-44t0.5 -40.5t2.5 -31q4 -31 10 -42t20 -11q19 0 26 19t7 72v41zM179 656q28 0 53 -11t44 -30t30 -44t11 -53q0 -27 -12 -52t-32 -44.5t-45.5 -31t-52.5 -11.5t-52 11.5t-45 30t-32 42t-12 48.5q0 30 11.5 56.5
t31 46t46 31t56.5 11.5zM333 273h-304v54h304v-54z" />
    <glyph glyph-name="guillemotright" unicode="&#xbb;" horiz-adv-x="453" 
d="M0 80l111 151l-111 150l85 71l162 -221l-162 -220zM206 79l111 151l-111 152l86 69l161 -221l-161 -219z" />
    <glyph glyph-name="onequarter" unicode="&#xbc;" horiz-adv-x="721" 
d="M463 112v163l-113 -163h113zM485 317h78v-205h27q11 0 17.5 5t11.5 19h7l-12 -41h-51v-56q0 -22 4.5 -27.5t22.5 -5.5h16v-6h-194v6h25q16 0 21 7t5 28v54h-132zM196 0h-74l366 652h73zM76 346h12q29 0 29 31v204q0 18 -6.5 23t-30.5 5v5q15 2 33.5 7.5t36.5 13.5
t33.5 16.5t24.5 16.5h5v-299q0 -23 27 -23h18v-6h-182v6z" />
    <glyph glyph-name="onehalf" unicode="&#xbd;" horiz-adv-x="721" 
d="M425 0q-4 15 -5 22.5t-1 15.5q0 18 9 39t23 34q5 5 9 8t11 7t18.5 9.5t31.5 15.5q29 14 41.5 33.5t12.5 51.5q0 77 -61 77q-29 0 -49.5 -16.5t-20.5 -40.5q10 10 17 13t18 3q23 0 36 -10.5t13 -29.5q0 -20 -13.5 -31.5t-36.5 -11.5t-38.5 13.5t-15.5 33.5q0 38 33.5 62.5
t86.5 24.5q59 0 95.5 -23t36.5 -61q0 -33 -26.5 -53t-93.5 -36q-35 -9 -54.5 -16.5t-32.5 -16.5q-19 -13 -31 -34t-12 -40v-6t1 -8v2q11 26 41 40t74 14h18.5t20.5 -1q12 -1 23 -1.5t16 -0.5q32 0 45 9.5t16 36.5h6q-3 -39 -7.5 -59.5t-12.5 -34.5q-25 -38 -74 -38
q-12 0 -20 1t-16.5 5t-20.5 12t-32 23q-15 10 -33 10t-29.5 -8.5t-11.5 -21.5q0 -2 0.5 -6.5t1.5 -10.5h-7zM196 0h-74l366 652h73zM76 346h12q29 0 29 31v204q0 18 -6.5 23t-30.5 5v5q15 2 33.5 7.5t36.5 13.5t33.5 16.5t24.5 16.5h5v-299q0 -23 27 -23h18v-6h-182v6z" />
    <glyph glyph-name="threequarters" unicode="&#xbe;" horiz-adv-x="721" 
d="M130 519q23 0 33 11.5t10 39.5q0 48 -10 66t-36 18q-46 0 -58 -28q13 4 21 4q19 0 31.5 -12t12.5 -29t-13.5 -28.5t-34.5 -11.5q-22 0 -35 12t-13 31q0 31 30 50t80 19q52 0 84.5 -20.5t32.5 -52.5q0 -23 -18.5 -39.5t-59.5 -29.5q57 -14 81.5 -34t24.5 -51
q0 -20 -12 -38t-32.5 -31.5t-48.5 -21.5t-59 -8q-54 0 -90.5 22.5t-36.5 55.5q0 23 16 39t40 16q25 0 38.5 -11t13.5 -31q0 -21 -12.5 -33t-35.5 -12q-8 0 -14.5 2t-17.5 7q17 -48 85 -48q20 0 31 4.5t20 15.5q8 10 10.5 23t2.5 43q0 47 -14 66t-49 19h-25v6h27zM462 112
v163l-113 -163h113zM484 317h78v-205h27q11 0 17.5 5t11.5 19h7l-12 -41h-51v-56q0 -22 4.5 -27.5t22.5 -5.5h16v-6h-194v6h25q16 0 21 7t5 28v54h-132zM196 0h-75l366 652h74z" />
    <glyph glyph-name="questiondown" unicode="&#xbf;" horiz-adv-x="589" 
d="M312 464q41 0 68.5 -28t27.5 -69q0 -42 -28 -69.5t-70 -27.5q-41 0 -68.5 27.5t-27.5 69.5t28 69.5t70 27.5zM340 248q2 -11 2.5 -19t0.5 -16q0 -11 -1 -19.5t-6.5 -22t-17 -35.5t-31.5 -60q-17 -33 -24.5 -59t-7.5 -54q0 -30 6 -58.5t17 -47.5q11 -20 33 -31.5t49 -11.5
q35 0 60 15t48 50q-9 -1 -17.5 -1h-14.5q-44 0 -72 28.5t-28 73.5q0 44 29 74t73 30q45 0 74.5 -31.5t29.5 -79.5q0 -38 -19.5 -73t-54.5 -61q-33 -24 -71 -35.5t-89 -11.5q-57 0 -105 12.5t-82.5 35t-54 53.5t-19.5 68q0 96 137 148q39 15 61 23.5t34.5 14.5t19 10.5
t15.5 12.5q21 18 21 46q0 10 -4 29z" />
    <glyph glyph-name="Agrave" unicode="&#xc0;" horiz-adv-x="754" 
d="M310 792q-11 4 -19.5 17.5t-8.5 27.5q0 20 13 33.5t31 13.5q22 0 47 -28l99 -108l-3 -10zM373 291l-82 266l-88 -266h170zM3 16q25 1 46.5 11.5t40 33t36.5 58t36 86.5l148 467h150l199 -593q7 -21 12.5 -33.5t12 -19t15.5 -8.5t23 -2h29v-16h-388v16h41q43 0 43 28
q0 15 -6 35l-64 197h-174q-8 -19 -15.5 -40.5t-13 -42t-8.5 -39.5t-3 -32q0 -31 11 -55.5t30 -35.5q15 -9 30 -12t41 -3v-16h-272v16z" />
    <glyph glyph-name="Aacute" unicode="&#xc1;" horiz-adv-x="754" 
d="M279 744l104 118q23 26 46 26q19 0 32 -13t13 -33q0 -18 -12.5 -32.5t-35.5 -22.5l-143 -49zM373 291l-82 266l-88 -266h170zM3 16q25 1 46.5 11.5t40 33t36.5 58t36 86.5l148 467h150l199 -593q7 -21 12.5 -33.5t12 -19t15.5 -8.5t23 -2h29v-16h-388v16h41q43 0 43 28
q0 15 -6 35l-64 197h-174q-8 -19 -15.5 -40.5t-13 -42t-8.5 -39.5t-3 -32q0 -31 11 -55.5t30 -35.5q15 -9 30 -12t41 -3v-16h-272v16z" />
    <glyph glyph-name="Acircumflex" unicode="&#xc2;" horiz-adv-x="754" 
d="M330 882q22 40 48 40q12 0 24.5 -9t21.5 -25l78 -142l-7 -3l-120 107l-117 -112l-7 3zM373 291l-82 266l-88 -266h170zM3 16q25 1 46.5 11.5t40 33t36.5 58t36 86.5l148 467h150l199 -593q7 -21 12.5 -33.5t12 -19t15.5 -8.5t23 -2h29v-16h-388v16h41q43 0 43 28
q0 15 -6 35l-64 197h-174q-8 -19 -15.5 -40.5t-13 -42t-8.5 -39.5t-3 -32q0 -31 11 -55.5t30 -35.5q15 -9 30 -12t41 -3v-16h-272v16z" />
    <glyph glyph-name="Atilde" unicode="&#xc3;" horiz-adv-x="754" 
d="M260 745q11 39 26.5 55t44.5 16q7 0 12 -0.5t12.5 -2t20 -4.5t35.5 -9q13 -3 25.5 -5t20.5 -2q12 0 18.5 4t13.5 15l4 -1q-12 -41 -29 -57t-48 -16t-64 12q-40 14 -60 14q-13 0 -25 -19h-7zM373 291l-82 266l-88 -266h170zM3 16q25 1 46.5 11.5t40 33t36.5 58t36 86.5
l148 467h150l199 -593q7 -21 12.5 -33.5t12 -19t15.5 -8.5t23 -2h29v-16h-388v16h41q43 0 43 28q0 15 -6 35l-64 197h-174q-8 -19 -15.5 -40.5t-13 -42t-8.5 -39.5t-3 -32q0 -31 11 -55.5t30 -35.5q15 -9 30 -12t41 -3v-16h-272v16z" />
    <glyph glyph-name="Adieresis" unicode="&#xc4;" horiz-adv-x="754" 
d="M454 847q22 0 36.5 -15.5t14.5 -38.5q0 -22 -15 -36.5t-38 -14.5q-22 0 -37 16t-15 39q0 21 15.5 35.5t38.5 14.5zM303 844q23 0 37.5 -15t14.5 -38t-15 -38t-38 -15t-38 15t-15 38t15.5 38t38.5 15zM373 291l-82 266l-88 -266h170zM3 16q25 1 46.5 11.5t40 33t36.5 58
t36 86.5l148 467h150l199 -593q7 -21 12.5 -33.5t12 -19t15.5 -8.5t23 -2h29v-16h-388v16h41q43 0 43 28q0 15 -6 35l-64 197h-174q-8 -19 -15.5 -40.5t-13 -42t-8.5 -39.5t-3 -32q0 -31 11 -55.5t30 -35.5q15 -9 30 -12t41 -3v-16h-272v16z" />
    <glyph glyph-name="Aring" unicode="&#xc5;" horiz-adv-x="754" 
d="M386 850q-16 0 -26 -10.5t-10 -27.5q0 -16 10 -26.5t26 -10.5q15 0 25.5 11t10.5 27t-10 26.5t-26 10.5zM387 887q31 0 51.5 -21t20.5 -53t-21 -53.5t-53 -21.5q-31 0 -51.5 21t-20.5 53t21 53.5t53 21.5zM373 291l-82 266l-88 -266h170zM3 16q25 1 46.5 11.5t40 33
t36.5 58t36 86.5l148 467h150l199 -593q7 -21 12.5 -33.5t12 -19t15.5 -8.5t23 -2h29v-16h-388v16h41q43 0 43 28q0 15 -6 35l-64 197h-174q-8 -19 -15.5 -40.5t-13 -42t-8.5 -39.5t-3 -32q0 -31 11 -55.5t30 -35.5q15 -9 30 -12t41 -3v-16h-272v16z" />
    <glyph glyph-name="AE" unicode="&#xc6;" horiz-adv-x="1044" 
d="M264 293h228v322q0 16 -8 26.5t-20 10.5q-4 0 -10 -3zM439 652q-6 -1 -10.5 -1h-11.5l-32 1v17l578 4v-257h-11q0 69 -34.5 125.5t-97.5 91.5q-16 7 -29.5 11.5t-28.5 7.5t-32.5 3.5t-41.5 0.5v-286q5 -1 10 -1h8q30 0 60.5 21.5t50.5 56.5q12 22 16 38.5t4 45.5h13
q0 -52 0.5 -88.5t1 -64t0.5 -49.5v-44v-48.5v-62.5h-12q2 35 -10 67.5t-33 56.5t-49.5 37.5t-59.5 12.5v-253q1 -24 1.5 -36.5t1 -19t1 -8.5t1.5 -4q8 -13 50 -13q55 0 91.5 17.5t67.5 59.5q23 31 41.5 67t29.5 70q5 16 7.5 33.5t4.5 47.5h12l5 -309h-617v16l27 -1h13
q23 0 36.5 4.5t21.5 15.5q9 11 9 19v223h-234q-22 -38 -36 -66t-22.5 -50t-12 -39.5t-3.5 -35.5q0 -36 21.5 -52t72.5 -18v-16h-278v16q31 4 56 16t50 37.5t52.5 67.5t63.5 105z" />
    <glyph glyph-name="Ccedilla" unicode="&#xc7;" horiz-adv-x="719" 
d="M382 -59q25 3 46 3q38 0 64 -21.5t26 -52.5q0 -35 -32.5 -56t-88.5 -21q-37 0 -63.5 10.5t-60.5 37.5l8 14q24 -17 45.5 -24.5t48.5 -7.5q30 0 50 12t20 31q0 14 -12 23.5t-30 9.5q-6 0 -15 -1t-19 -3v97q-55 2 -94 12.5t-77 32.5q-36 21 -65 51t-50 66.5t-32 77.5
t-11 83q0 43 11.5 85.5t32.5 81.5t50.5 72.5t66.5 58.5q94 64 182 64q26 0 49.5 -5.5t52.5 -18.5q56 -25 84 -25q12 0 26 5.5t24 14.5q6 5 9 25h13v-320h-11q-8 57 -25.5 105t-47.5 97q-70 108 -155 108q-41 0 -66.5 -26.5t-45.5 -89.5q-14 -45 -20.5 -95t-6.5 -119
q0 -45 2 -79.5t6.5 -63t12 -52.5t18.5 -47q20 -45 48 -64t72 -19q50 0 92.5 20t73.5 55.5t48.5 84t17.5 105.5h11q1 -39 -7.5 -74t-28.5 -75q-18 -35 -40 -60t-51.5 -40.5t-67.5 -23.5t-88 -9v-50z" />
    <glyph glyph-name="Egrave" unicode="&#xc8;" horiz-adv-x="685" 
d="M259 789q-11 4 -19.5 17.5t-8.5 28.5q0 20 13 33.5t32 13.5q21 0 47 -29l98 -108l-3 -9zM20 669h577v-254h-12q-1 26 -3.5 45.5t-7.5 36t-14 32t-22 32.5q-73 93 -187 93h-31v-286h19q27 0 54.5 16.5t48.5 45.5q18 24 24.5 43t6.5 48v9h13v-358h-13v10q0 30 -7.5 52.5
t-25.5 47.5q-20 29 -49 47.5t-52 18.5h-19v-305q0 -17 13 -23.5t46 -6.5q54 0 89.5 16t62.5 53q23 30 43 68t32 73q7 19 9.5 35.5t3.5 48.5h13v-307h-612v13h33q42 0 58 13t16 48v540q0 22 -18 31t-60 9h-29v15z" />
    <glyph glyph-name="Eacute" unicode="&#xc9;" horiz-adv-x="685" 
d="M228 741l104 118q24 27 46 27q19 0 32 -13.5t13 -33.5q0 -18 -12.5 -32t-35.5 -22l-143 -49zM20 669h577v-254h-12q-1 26 -3.5 45.5t-7.5 36t-14 32t-22 32.5q-73 93 -187 93h-31v-286h19q27 0 54.5 16.5t48.5 45.5q18 24 24.5 43t6.5 48v9h13v-358h-13v10
q0 30 -7.5 52.5t-25.5 47.5q-20 29 -49 47.5t-52 18.5h-19v-305q0 -17 13 -23.5t46 -6.5q54 0 89.5 16t62.5 53q23 30 43 68t32 73q7 19 9.5 35.5t3.5 48.5h13v-307h-612v13h33q42 0 58 13t16 48v540q0 22 -18 31t-60 9h-29v15z" />
    <glyph glyph-name="Ecircumflex" unicode="&#xca;" horiz-adv-x="685" 
d="M279 879q22 40 48 40q27 0 46 -34l78 -141l-6 -4l-121 107l-117 -111l-7 2zM20 669h577v-254h-12q-1 26 -3.5 45.5t-7.5 36t-14 32t-22 32.5q-73 93 -187 93h-31v-286h19q27 0 54.5 16.5t48.5 45.5q18 24 24.5 43t6.5 48v9h13v-358h-13v10q0 30 -7.5 52.5t-25.5 47.5
q-20 29 -49 47.5t-52 18.5h-19v-305q0 -17 13 -23.5t46 -6.5q54 0 89.5 16t62.5 53q23 30 43 68t32 73q7 19 9.5 35.5t3.5 48.5h13v-307h-612v13h33q42 0 58 13t16 48v540q0 22 -18 31t-60 9h-29v15z" />
    <glyph glyph-name="Edieresis" unicode="&#xcb;" horiz-adv-x="685" 
d="M403 844q22 0 36.5 -15.5t14.5 -38.5q0 -22 -15 -36.5t-38 -14.5q-22 0 -37 16t-15 39q0 21 15.5 35.5t38.5 14.5zM252 842q23 0 37.5 -15t14.5 -38t-15 -38t-38 -15t-38 15t-15 38t15.5 38t38.5 15zM20 669h577v-254h-12q-1 26 -3.5 45.5t-7.5 36t-14 32t-22 32.5
q-73 93 -187 93h-31v-286h19q27 0 54.5 16.5t48.5 45.5q18 24 24.5 43t6.5 48v9h13v-358h-13v10q0 30 -7.5 52.5t-25.5 47.5q-20 29 -49 47.5t-52 18.5h-19v-305q0 -17 13 -23.5t46 -6.5q54 0 89.5 16t62.5 53q23 30 43 68t32 73q7 19 9.5 35.5t3.5 48.5h13v-307h-612v13h33
q42 0 58 13t16 48v540q0 22 -18 31t-60 9h-29v15z" />
    <glyph glyph-name="Igrave" unicode="&#xcc;" horiz-adv-x="409" 
d="M137 788q-11 4 -19 17.5t-8 28.5q0 20 13 33.5t31 13.5q21 0 47 -29l98 -108l-2 -9zM20 17h29q54 0 54 76v519q0 41 -54 41h-29v15h370v-15h-27q-26 0 -41.5 -11.5t-15.5 -29.5l-1 -541q0 -24 13.5 -39t35.5 -15h36v-17h-370v17z" />
    <glyph glyph-name="Iacute" unicode="&#xcd;" horiz-adv-x="409" 
d="M107 740l104 118q23 26 46 26q19 0 32 -13t13 -33q0 -18 -12.5 -32t-35.5 -22l-144 -49zM20 17h29q54 0 54 76v519q0 41 -54 41h-29v15h370v-15h-27q-26 0 -41.5 -11.5t-15.5 -29.5l-1 -541q0 -24 13.5 -39t35.5 -15h36v-17h-370v17z" />
    <glyph glyph-name="Icircumflex" unicode="&#xce;" horiz-adv-x="409" 
d="M158 878q22 40 48 40q12 0 24.5 -9t20.5 -25l79 -141l-7 -4l-121 107l-116 -111l-7 2zM20 17h29q54 0 54 76v519q0 41 -54 41h-29v15h370v-15h-27q-26 0 -41.5 -11.5t-15.5 -29.5l-1 -541q0 -24 13.5 -39t35.5 -15h36v-17h-370v17z" />
    <glyph glyph-name="Idieresis" unicode="&#xcf;" horiz-adv-x="409" 
d="M282 843q22 0 36.5 -15.5t14.5 -38.5q0 -22 -15 -36.5t-38 -14.5q-22 0 -37 16t-15 39q0 21 15.5 35.5t38.5 14.5zM131 841q23 0 37.5 -15t14.5 -38t-15 -38t-38 -15t-38 15t-15 38t15.5 38t38.5 15zM20 17h29q54 0 54 76v519q0 41 -54 41h-29v15h370v-15h-27
q-26 0 -41.5 -11.5t-15.5 -29.5l-1 -541q0 -24 13.5 -39t35.5 -15h36v-17h-370v17z" />
    <glyph glyph-name="Eth" unicode="&#xd0;" horiz-adv-x="763" 
d="M314 32q0 -17 17 -17h65q35 0 56 21.5t32 72.5q22 89 22 241q0 66 -1 109t-4 71.5t-8 47.5t-14 36q-12 23 -34 31.5t-72 8.5q-32 0 -45.5 -9t-13.5 -31v-237h65v-18h-65v-327zM74 359v18h48v220q0 54 -57 54h-52v14l323 1q43 0 73.5 -1t53 -3t40.5 -5.5t36 -8.5
q46 -14 77.5 -39.5t54.5 -67.5q52 -93 52 -208q0 -168 -123 -268q-23 -19 -44 -31.5t-44.5 -20t-51.5 -10.5t-65 -3l-381 1v14h43q65 0 65 52v292h-48z" />
    <glyph glyph-name="Ntilde" unicode="&#xd1;" horiz-adv-x="715" 
d="M243 739q10 39 25.5 55t44.5 16q7 0 12 -0.5t13 -2t20.5 -4.5t34.5 -9q13 -3 25.5 -5t21.5 -2q12 0 18.5 3.5t12.5 14.5h5q-12 -41 -29 -57t-49 -16q-31 0 -64 12q-39 14 -59 14q-14 0 -26 -19h-6zM22 16h20q43 0 66.5 48.5t23.5 137.5v378q-3 33 -24.5 51.5t-56.5 17.5
v18h292l240 -465v299q0 10 -2 24.5t-5 29t-6.5 27.5t-6.5 20q-22 47 -71 47h-26v18h232v-18h-24q-15 0 -31.5 -12t-27.5 -30q-10 -17 -14 -39.5t-4 -57.5v-513h-158l-294 565v-375q0 -27 0.5 -45t3 -31t6 -23t9.5 -22q14 -27 30 -37.5t48 -12.5l23 -2v-15h-245z" />
    <glyph glyph-name="Ograve" unicode="&#xd2;" horiz-adv-x="751" 
d="M308 800q-11 4 -19 17.5t-8 28.5q0 20 13 33.5t31 13.5q22 0 47 -29l98 -108l-2 -9zM375 668q-33 0 -54 -14.5t-36 -49.5q-37 -87 -37 -270q0 -169 26 -253q11 -35 37.5 -56t60.5 -21q26 0 48.5 13t33.5 34q19 38 29 103.5t10 149.5q0 16 -0.5 41.5t-1.5 51t-2.5 48
t-2.5 33.5q-5 55 -13 91.5t-20.5 58.5t-31.5 31t-46 9zM379 680q55 0 110.5 -25t106.5 -72q60 -56 87.5 -115.5t27.5 -133.5q0 -66 -28 -128t-75 -109.5t-107.5 -76t-126.5 -28.5q-32 0 -66 8t-67 23t-63 35.5t-53 45.5q-41 44 -63 102t-22 121q0 77 34 146.5t97 121.5
q103 85 208 85z" />
    <glyph glyph-name="Oacute" unicode="&#xd3;" horiz-adv-x="751" 
d="M278 752l104 118q23 26 46 26q19 0 32 -13t13 -33q0 -18 -12.5 -32t-35.5 -22l-144 -49zM375 668q-33 0 -54 -14.5t-36 -49.5q-37 -87 -37 -270q0 -169 26 -253q11 -35 37.5 -56t60.5 -21q26 0 48.5 13t33.5 34q19 38 29 103.5t10 149.5q0 16 -0.5 41.5t-1.5 51t-2.5 48
t-2.5 33.5q-5 55 -13 91.5t-20.5 58.5t-31.5 31t-46 9zM379 680q55 0 110.5 -25t106.5 -72q60 -56 87.5 -115.5t27.5 -133.5q0 -66 -28 -128t-75 -109.5t-107.5 -76t-126.5 -28.5q-32 0 -66 8t-67 23t-63 35.5t-53 45.5q-41 44 -63 102t-22 121q0 77 34 146.5t97 121.5
q103 85 208 85z" />
    <glyph glyph-name="Ocircumflex" unicode="&#xd4;" horiz-adv-x="751" 
d="M329 890q22 40 48 40q12 0 24.5 -9t20.5 -25l79 -141l-7 -4l-121 107l-116 -111l-7 2zM375 668q-33 0 -54 -14.5t-36 -49.5q-37 -87 -37 -270q0 -169 26 -253q11 -35 37.5 -56t60.5 -21q26 0 48.5 13t33.5 34q19 38 29 103.5t10 149.5q0 16 -0.5 41.5t-1.5 51t-2.5 48
t-2.5 33.5q-5 55 -13 91.5t-20.5 58.5t-31.5 31t-46 9zM379 680q55 0 110.5 -25t106.5 -72q60 -56 87.5 -115.5t27.5 -133.5q0 -66 -28 -128t-75 -109.5t-107.5 -76t-126.5 -28.5q-32 0 -66 8t-67 23t-63 35.5t-53 45.5q-41 44 -63 102t-22 121q0 77 34 146.5t97 121.5
q103 85 208 85z" />
    <glyph glyph-name="Otilde" unicode="&#xd5;" horiz-adv-x="751" 
d="M259 753q10 39 25.5 55t44.5 16q7 0 12.5 -0.5t13 -2t20 -4.5t35.5 -9q13 -3 25.5 -5t20.5 -2q12 0 18.5 4t12.5 15l5 -1q-12 -41 -29 -57t-48 -16t-65 12q-39 14 -59 14q-13 0 -25 -19h-7zM375 668q-33 0 -54 -14.5t-36 -49.5q-37 -87 -37 -270q0 -169 26 -253
q11 -35 37.5 -56t60.5 -21q26 0 48.5 13t33.5 34q19 38 29 103.5t10 149.5q0 16 -0.5 41.5t-1.5 51t-2.5 48t-2.5 33.5q-5 55 -13 91.5t-20.5 58.5t-31.5 31t-46 9zM379 680q55 0 110.5 -25t106.5 -72q60 -56 87.5 -115.5t27.5 -133.5q0 -66 -28 -128t-75 -109.5t-107.5 -76
t-126.5 -28.5q-32 0 -66 8t-67 23t-63 35.5t-53 45.5q-41 44 -63 102t-22 121q0 77 34 146.5t97 121.5q103 85 208 85z" />
    <glyph glyph-name="Odieresis" unicode="&#xd6;" horiz-adv-x="751" 
d="M453 855q22 0 36.5 -15.5t14.5 -38.5q0 -22 -15 -36.5t-38 -14.5q-22 0 -37 16t-15 39q0 21 15.5 35.5t38.5 14.5zM302 853q23 0 37.5 -15t14.5 -38t-15 -38t-38 -15t-38 15t-15 38t15.5 38t38.5 15zM375 668q-33 0 -54 -14.5t-36 -49.5q-37 -87 -37 -270q0 -169 26 -253
q11 -35 37.5 -56t60.5 -21q26 0 48.5 13t33.5 34q19 38 29 103.5t10 149.5q0 16 -0.5 41.5t-1.5 51t-2.5 48t-2.5 33.5q-5 55 -13 91.5t-20.5 58.5t-31.5 31t-46 9zM379 680q55 0 110.5 -25t106.5 -72q60 -56 87.5 -115.5t27.5 -133.5q0 -66 -28 -128t-75 -109.5t-107.5 -76
t-126.5 -28.5q-32 0 -66 8t-67 23t-63 35.5t-53 45.5q-41 44 -63 102t-22 121q0 77 34 146.5t97 121.5q103 85 208 85z" />
    <glyph glyph-name="multiply" unicode="&#xd7;" horiz-adv-x="500" 
d="M249 410l157 157l65 -65l-157 -157l156 -155l-64 -64l-155 156l-157 -157l-65 65l157 156l-156 156l64 64z" />
    <glyph glyph-name="Oslash" unicode="&#xd8;" horiz-adv-x="757" 
d="M275 99q25 -95 105 -95q32 0 54.5 18t37 56.5t21 99.5t6.5 147q0 66 -3 115.5t-10 90.5zM477 574l-2 7q-21 87 -92 87q-45 0 -70.5 -30t-40.5 -102q-8 -42 -13 -94.5t-5 -104.5q0 -50 3.5 -98.5t10.5 -98.5l210 432zM555 732l23 -12l-42 -87q88 -52 135 -129t47 -169
q0 -93 -48 -171t-137 -129q-38 -23 -73 -32.5t-74 -9.5q-77 0 -146 33l-48 -98l-22 11l48 99q-82 46 -127 122t-45 168q0 114 78 211q54 66 122 103t138 37q66 0 129 -33z" />
    <glyph glyph-name="Ugrave" unicode="&#xd9;" horiz-adv-x="698" 
d="M292 785q-11 5 -19.5 18t-8.5 28q0 20 13 33.5t32 13.5q20 0 47 -29l98 -108l-2 -9zM368 649h-24q-23 0 -36 -15t-13 -41v-468q0 -49 27 -70q15 -13 42.5 -20.5t57.5 -7.5q88 0 124 45q7 9 11.5 15.5t6.5 16t2.5 23.5t0.5 38l-1 347q0 32 -13 62.5t-34 47.5
q-19 14 -37 20.5t-42 6.5h-5v16h256v-16q-6 1 -12 1h-8q-28 0 -45 -14q-22 -18 -35 -52t-13 -72v-378q0 -38 -18 -65t-60 -50q-32 -18 -65.5 -26t-76.5 -8q-77 0 -141.5 25.5t-96.5 67.5q-12 16 -16.5 34.5t-4.5 50.5l-2 439q0 20 -12 33.5t-31 13.5h-27v16h341v-16z" />
    <glyph glyph-name="Uacute" unicode="&#xda;" horiz-adv-x="698" 
d="M262 737l103 118q24 27 47 27q19 0 32 -13.5t13 -33.5q0 -18 -12.5 -32t-35.5 -22l-144 -49zM368 649h-24q-23 0 -36 -15t-13 -41v-468q0 -49 27 -70q15 -13 42.5 -20.5t57.5 -7.5q88 0 124 45q7 9 11.5 15.5t6.5 16t2.5 23.5t0.5 38l-1 347q0 32 -13 62.5t-34 47.5
q-19 14 -37 20.5t-42 6.5h-5v16h256v-16q-6 1 -12 1h-8q-28 0 -45 -14q-22 -18 -35 -52t-13 -72v-378q0 -38 -18 -65t-60 -50q-32 -18 -65.5 -26t-76.5 -8q-77 0 -141.5 25.5t-96.5 67.5q-12 16 -16.5 34.5t-4.5 50.5l-2 439q0 20 -12 33.5t-31 13.5h-27v16h341v-16z" />
    <glyph glyph-name="Ucircumflex" unicode="&#xdb;" horiz-adv-x="698" 
d="M312 875q22 40 48 40q27 0 46 -34l79 -141l-7 -4l-121 108l-116 -112l-7 2zM368 649h-24q-23 0 -36 -15t-13 -41v-468q0 -49 27 -70q15 -13 42.5 -20.5t57.5 -7.5q88 0 124 45q7 9 11.5 15.5t6.5 16t2.5 23.5t0.5 38l-1 347q0 32 -13 62.5t-34 47.5q-19 14 -37 20.5
t-42 6.5h-5v16h256v-16q-6 1 -12 1h-8q-28 0 -45 -14q-22 -18 -35 -52t-13 -72v-378q0 -38 -18 -65t-60 -50q-32 -18 -65.5 -26t-76.5 -8q-77 0 -141.5 25.5t-96.5 67.5q-12 16 -16.5 34.5t-4.5 50.5l-2 439q0 20 -12 33.5t-31 13.5h-27v16h341v-16z" />
    <glyph glyph-name="Udieresis" unicode="&#xdc;" horiz-adv-x="698" 
d="M436 840q22 0 36.5 -15.5t14.5 -38.5q0 -22 -15 -36.5t-38 -14.5q-22 0 -37 16t-15 39q0 21 15.5 35.5t38.5 14.5zM286 838q23 0 37.5 -15t14.5 -38t-15 -38t-38 -15t-38 15t-15 38t15.5 38t38.5 15zM368 649h-24q-23 0 -36 -15t-13 -41v-468q0 -49 27 -70
q15 -13 42.5 -20.5t57.5 -7.5q88 0 124 45q7 9 11.5 15.5t6.5 16t2.5 23.5t0.5 38l-1 347q0 32 -13 62.5t-34 47.5q-19 14 -37 20.5t-42 6.5h-5v16h256v-16q-6 1 -12 1h-8q-28 0 -45 -14q-22 -18 -35 -52t-13 -72v-378q0 -38 -18 -65t-60 -50q-32 -18 -65.5 -26t-76.5 -8
q-77 0 -141.5 25.5t-96.5 67.5q-12 16 -16.5 34.5t-4.5 50.5l-2 439q0 20 -12 33.5t-31 13.5h-27v16h341v-16z" />
    <glyph glyph-name="Yacute" unicode="&#xdd;" horiz-adv-x="694" 
d="M249 740l104 117q23 27 46 27q19 0 32 -13.5t13 -33.5q0 -17 -12.5 -31.5t-35.5 -22.5l-144 -49zM386 667v-16h-37q-12 0 -21 -5.5t-9 -13.5q0 -10 9 -25l119 -227l65 126q22 42 22 83q0 26 -17 44t-42 18h-18v16h233v-16l-32 1q-27 -1 -61.5 -39t-69.5 -107l-70 -138
v-310q0 -23 13 -32.5t42 -9.5h28v-16h-374v16h36q26 0 39.5 12t13.5 33v284l-162 243q-23 34 -38.5 47t-37.5 16h-14v16h383z" />
    <glyph glyph-name="Thorn" unicode="&#xde;" horiz-adv-x="645" 
d="M305 245q6 -5 10.5 -6t16.5 -1q47 0 69.5 29.5t15.5 83.5q-1 4 -1 6.5v4.5v4.5t1 7.5q2 15 1.5 39.5t-3 50t-6 49t-7.5 36.5q-16 48 -60 47l-12 -1h-24zM388 609q48 0 89 -14t70.5 -39t46.5 -59.5t17 -74.5q0 -48 -26.5 -90.5t-71.5 -65.5q-38 -20 -84.5 -31.5
t-91.5 -11.5q-8 0 -14.5 1t-17.5 5v-158q0 -25 13 -39.5t35 -14.5h36v-17h-369v17h29q54 0 54 75v519q0 41 -54 41h-29v16h369v-16h-26q-54 0 -58 -43h83z" />
    <glyph glyph-name="germandbls" unicode="&#xdf;" horiz-adv-x="626" 
d="M20 13l25 1q32 1 32 40v453q0 41 11.5 66.5t39.5 47.5q37 29 88.5 45t105.5 16q40 0 74 -9.5t59 -26.5t39.5 -39.5t14.5 -49.5q0 -34 -19 -59t-61 -47q40 -20 62.5 -35.5t40.5 -38.5q26 -35 41 -81.5t15 -96.5t-15 -92.5t-41 -74t-61.5 -49.5t-76.5 -18q-35 0 -61 15
t-40 42q-5 10 -8.5 23.5t-7.5 48.5l10 1l4 -25q9 -54 36 -54q8 0 16.5 6.5t13.5 16.5q17 36 26.5 88.5t9.5 105.5q0 24 -2.5 50t-6.5 50t-9.5 44t-11.5 33q-7 12 -19 20t-26 8h-24v14l20 1q17 0 25.5 7t15.5 26q6 15 8 28.5t2 33.5q0 120 -60 120q-27 0 -42 -22.5t-15 -64.5
v-583h-228v15z" />
    <glyph glyph-name="agrave" unicode="&#xe0;" horiz-adv-x="531" 
d="M205 582q-11 4 -19 17t-8 28q0 20 13 33.5t31 13.5q21 0 47 -28l98 -109l-2 -9zM269 266l-11 -10q-11 -9 -17.5 -14.5t-10 -9t-5 -6.5t-4.5 -7q-9 -14 -14 -34t-5 -41v-65q0 -36 5 -51t18 -15t24.5 12t20.5 32t14.5 46t5.5 54v129zM517 123q1 -6 1 -13.5v-9.5
q0 -114 -105 -114q-29 0 -54.5 9t-39.5 24q-16 17 -29 60q-11 -27 -22 -45t-24.5 -28.5t-30.5 -14.5t-41 -4q-69 0 -107 31t-38 88q0 23 8.5 45.5t22.5 39.5q23 26 99 40q43 8 73.5 22.5t42.5 31.5q9 13 14 37.5t5 53.5q0 39 -14.5 55t-49.5 16q-26 0 -47 -8.5t-32 -22.5
q23 -2 35 -6t21 -13q14 -12 21 -29t7 -35q0 -35 -25 -58.5t-62 -23.5q-36 0 -61 25t-25 62q0 27 14.5 49.5t40.5 39t62.5 25.5t80.5 9q119 0 169 -57q9 -9 14 -18t8 -20t4 -27t1 -39v-253q0 -31 17 -31q8 0 16 8t13 21t7 31t3 47h7z" />
    <glyph glyph-name="aacute" unicode="&#xe1;" horiz-adv-x="531" 
d="M175 534l104 117q23 27 46 27q19 0 32 -13.5t13 -33.5q0 -17 -12.5 -31.5t-35.5 -22.5l-144 -49zM269 266l-11 -10q-11 -9 -17.5 -14.5t-10 -9t-5 -6.5t-4.5 -7q-9 -14 -14 -34t-5 -41v-65q0 -36 5 -51t18 -15t24.5 12t20.5 32t14.5 46t5.5 54v129zM517 123q1 -6 1 -13.5
v-9.5q0 -114 -105 -114q-29 0 -54.5 9t-39.5 24q-16 17 -29 60q-11 -27 -22 -45t-24.5 -28.5t-30.5 -14.5t-41 -4q-69 0 -107 31t-38 88q0 23 8.5 45.5t22.5 39.5q23 26 99 40q43 8 73.5 22.5t42.5 31.5q9 13 14 37.5t5 53.5q0 39 -14.5 55t-49.5 16q-26 0 -47 -8.5
t-32 -22.5q23 -2 35 -6t21 -13q14 -12 21 -29t7 -35q0 -35 -25 -58.5t-62 -23.5q-36 0 -61 25t-25 62q0 27 14.5 49.5t40.5 39t62.5 25.5t80.5 9q119 0 169 -57q9 -9 14 -18t8 -20t4 -27t1 -39v-253q0 -31 17 -31q8 0 16 8t13 21t7 31t3 47h7z" />
    <glyph glyph-name="acircumflex" unicode="&#xe2;" horiz-adv-x="531" 
d="M226 671q21 40 47 40q27 0 46 -34l79 -141l-7 -4l-121 108l-116 -112l-7 2zM269 266l-11 -10q-11 -9 -17.5 -14.5t-10 -9t-5 -6.5t-4.5 -7q-9 -14 -14 -34t-5 -41v-65q0 -36 5 -51t18 -15t24.5 12t20.5 32t14.5 46t5.5 54v129zM517 123q1 -6 1 -13.5v-9.5
q0 -114 -105 -114q-29 0 -54.5 9t-39.5 24q-16 17 -29 60q-11 -27 -22 -45t-24.5 -28.5t-30.5 -14.5t-41 -4q-69 0 -107 31t-38 88q0 23 8.5 45.5t22.5 39.5q23 26 99 40q43 8 73.5 22.5t42.5 31.5q9 13 14 37.5t5 53.5q0 39 -14.5 55t-49.5 16q-26 0 -47 -8.5t-32 -22.5
q23 -2 35 -6t21 -13q14 -12 21 -29t7 -35q0 -35 -25 -58.5t-62 -23.5q-36 0 -61 25t-25 62q0 27 14.5 49.5t40.5 39t62.5 25.5t80.5 9q119 0 169 -57q9 -9 14 -18t8 -20t4 -27t1 -39v-253q0 -31 17 -31q8 0 16 8t13 21t7 31t3 47h7z" />
    <glyph glyph-name="atilde" unicode="&#xe3;" horiz-adv-x="531" 
d="M156 534q10 40 25.5 56t44.5 16q7 0 12 -0.5t13 -2t20.5 -4.5t34.5 -9q13 -3 25.5 -5t21.5 -2q12 0 18.5 3.5t12.5 14.5h5q-12 -41 -29 -57t-49 -16q-31 0 -64 12q-39 14 -59 14q-13 0 -26 -20h-6zM269 266l-11 -10q-11 -9 -17.5 -14.5t-10 -9t-5 -6.5t-4.5 -7
q-9 -14 -14 -34t-5 -41v-65q0 -36 5 -51t18 -15t24.5 12t20.5 32t14.5 46t5.5 54v129zM517 123q1 -6 1 -13.5v-9.5q0 -114 -105 -114q-29 0 -54.5 9t-39.5 24q-16 17 -29 60q-11 -27 -22 -45t-24.5 -28.5t-30.5 -14.5t-41 -4q-69 0 -107 31t-38 88q0 23 8.5 45.5t22.5 39.5
q23 26 99 40q43 8 73.5 22.5t42.5 31.5q9 13 14 37.5t5 53.5q0 39 -14.5 55t-49.5 16q-26 0 -47 -8.5t-32 -22.5q23 -2 35 -6t21 -13q14 -12 21 -29t7 -35q0 -35 -25 -58.5t-62 -23.5q-36 0 -61 25t-25 62q0 27 14.5 49.5t40.5 39t62.5 25.5t80.5 9q119 0 169 -57
q9 -9 14 -18t8 -20t4 -27t1 -39v-253q0 -31 17 -31q8 0 16 8t13 21t7 31t3 47h7z" />
    <glyph glyph-name="adieresis" unicode="&#xe4;" horiz-adv-x="531" 
d="M350 636q22 0 36.5 -15.5t14.5 -38.5q0 -22 -15 -36.5t-38 -14.5q-22 0 -37 16t-15 39q0 21 15.5 35.5t38.5 14.5zM199 634q23 0 37.5 -15t14.5 -38t-15 -38t-38 -15t-38 15t-15 38t15.5 38t38.5 15zM269 266l-11 -10q-11 -9 -17.5 -14.5t-10 -9t-5 -6.5t-4.5 -7
q-9 -14 -14 -34t-5 -41v-65q0 -36 5 -51t18 -15t24.5 12t20.5 32t14.5 46t5.5 54v129zM517 123q1 -6 1 -13.5v-9.5q0 -114 -105 -114q-29 0 -54.5 9t-39.5 24q-16 17 -29 60q-11 -27 -22 -45t-24.5 -28.5t-30.5 -14.5t-41 -4q-69 0 -107 31t-38 88q0 23 8.5 45.5t22.5 39.5
q23 26 99 40q43 8 73.5 22.5t42.5 31.5q9 13 14 37.5t5 53.5q0 39 -14.5 55t-49.5 16q-26 0 -47 -8.5t-32 -22.5q23 -2 35 -6t21 -13q14 -12 21 -29t7 -35q0 -35 -25 -58.5t-62 -23.5q-36 0 -61 25t-25 62q0 27 14.5 49.5t40.5 39t62.5 25.5t80.5 9q119 0 169 -57
q9 -9 14 -18t8 -20t4 -27t1 -39v-253q0 -31 17 -31q8 0 16 8t13 21t7 31t3 47h7z" />
    <glyph glyph-name="aring" unicode="&#xe5;" horiz-adv-x="531" 
d="M273 640q-16 0 -26.5 -10.5t-10.5 -27.5q0 -16 10.5 -26.5t25.5 -10.5q16 0 26.5 11t10.5 27t-10.5 26.5t-25.5 10.5zM273 677q32 0 52.5 -21t20.5 -53t-21 -53.5t-53 -21.5t-52.5 21t-20.5 53t21 53.5t53 21.5zM269 266l-11 -10q-11 -9 -17.5 -14.5t-10 -9t-5 -6.5
t-4.5 -7q-9 -14 -14 -34t-5 -41v-65q0 -36 5 -51t18 -15t24.5 12t20.5 32t14.5 46t5.5 54v129zM517 123q1 -6 1 -13.5v-9.5q0 -114 -105 -114q-29 0 -54.5 9t-39.5 24q-16 17 -29 60q-11 -27 -22 -45t-24.5 -28.5t-30.5 -14.5t-41 -4q-69 0 -107 31t-38 88q0 23 8.5 45.5
t22.5 39.5q23 26 99 40q43 8 73.5 22.5t42.5 31.5q9 13 14 37.5t5 53.5q0 39 -14.5 55t-49.5 16q-26 0 -47 -8.5t-32 -22.5q23 -2 35 -6t21 -13q14 -12 21 -29t7 -35q0 -35 -25 -58.5t-62 -23.5q-36 0 -61 25t-25 62q0 27 14.5 49.5t40.5 39t62.5 25.5t80.5 9q119 0 169 -57
q9 -9 14 -18t8 -20t4 -27t1 -39v-253q0 -31 17 -31q8 0 16 8t13 21t7 31t3 47h7z" />
    <glyph glyph-name="ae" unicode="&#xe6;" horiz-adv-x="749" 
d="M551 242q1 18 1 27.5v25.5v27l-1 45q0 45 -8.5 62.5t-30.5 17.5q-53 0 -53 -141l-2 -64h94zM291 286q-13 -16 -32 -30q-11 -9 -17.5 -14.5t-10 -9t-5 -6t-4.5 -6.5q-9 -14 -14 -34t-5 -41v-66q0 -36 5 -51t18 -15t24.5 12t20.5 32t14.5 46t5.5 55v128zM260 461
q24 0 41 -1t31.5 -4.5t28.5 -9.5t31 -16q18 9 33 15.5t28.5 10.5t27 5.5t29.5 1.5q54 0 97 -23t72 -68q21 -32 29 -63.5t9 -80.5h-261q0 -57 1.5 -86.5t3.5 -49.5q3 -22 12.5 -43t21.5 -32q16 -16 47 -16q66 0 108 43.5t49 119.5h13q-7 -88 -56.5 -135t-137.5 -47
q-50 0 -96 16.5t-81 47.5q-15 13 -22.5 25t-15.5 33q-13 -35 -25.5 -57.5t-27 -36t-33.5 -18.5t-44 -5q-69 0 -107 31t-38 88q0 23 8.5 45.5t22.5 39.5q23 26 99 41q43 8 73.5 22t42.5 31q9 13 14 37.5t5 53.5q0 39 -14.5 55t-49.5 16q-26 0 -47 -8.5t-32 -22.5q23 -2 35 -6
t21 -13q14 -12 21 -29t7 -35q0 -35 -25 -58.5t-61 -23.5q-37 0 -62 25t-25 62q0 27 14.5 49.5t40.5 39t62 25.5t79 9h3z" />
    <glyph glyph-name="ccedilla" unicode="&#xe7;" horiz-adv-x="499" 
d="M257 -57q25 3 46 3q38 0 64.5 -21.5t26.5 -52.5q0 -35 -32.5 -56t-88.5 -21q-37 0 -64 10.5t-61 37.5l9 14q24 -17 45.5 -24.5t48.5 -7.5q30 0 50 12t20 31q0 14 -12.5 23.5t-29.5 9.5q-7 0 -15.5 -1t-18.5 -3v91q-29 3 -50.5 10t-44.5 21q-26 16 -47.5 38.5t-37 49
t-24 56t-8.5 59.5q0 49 20 93t54 77.5t79 53t96 19.5q38 0 70 -10t55 -27.5t35.5 -42t12.5 -54.5q0 -45 -28 -74t-71 -29q-41 0 -68.5 27.5t-27.5 68.5q0 19 6.5 35.5t18 29t27 19.5t32.5 7q7 0 17 -1t21 -3q-28 37 -81 37q-17 0 -30.5 -6t-21.5 -18q-14 -19 -22.5 -64.5
t-8.5 -102.5q0 -71 4.5 -118t14.5 -76t27 -41t42 -12q33 0 64 16.5t51 45.5q16 23 23 47.5t9 64.5h10q1 -7 1 -12v-9q0 -20 -8 -46.5t-20 -46.5q-23 -38 -66.5 -60.5t-94.5 -22.5h-18v-44z" />
    <glyph glyph-name="egrave" unicode="&#xe8;" horiz-adv-x="506" 
d="M186 583q-11 4 -19.5 17.5t-8.5 27.5q0 20 13 33.5t31 13.5q22 0 47 -28l99 -108l-3 -10zM307 242v80v39q0 30 -1.5 43.5t-5.5 21.5q-11 21 -32 21q-53 0 -53 -141l-2 -64h94zM213 190q0 -35 1 -58t3 -39.5t6.5 -29.5t12.5 -28q17 -34 64 -34q35 0 64.5 15t52.5 44
q18 23 25.5 44.5t11.5 59.5h13q-3 -22 -6.5 -38t-8 -29t-10.5 -24t-14 -23q-49 -68 -155 -68q-54 0 -98 16.5t-75.5 46.5t-49 71.5t-17.5 92.5q0 54 18 100.5t49 80.5t73.5 53.5t91.5 19.5q54 0 97.5 -23t72.5 -68q21 -32 29 -63.5t9 -80.5h-261z" />
    <glyph glyph-name="eacute" unicode="&#xe9;" horiz-adv-x="506" 
d="M155 535l104 118q23 26 46 26q19 0 32 -13t13 -33q0 -18 -12.5 -32.5t-35.5 -22.5l-143 -49zM307 242v80v39q0 30 -1.5 43.5t-5.5 21.5q-11 21 -32 21q-53 0 -53 -141l-2 -64h94zM213 190q0 -35 1 -58t3 -39.5t6.5 -29.5t12.5 -28q17 -34 64 -34q35 0 64.5 15t52.5 44
q18 23 25.5 44.5t11.5 59.5h13q-3 -22 -6.5 -38t-8 -29t-10.5 -24t-14 -23q-49 -68 -155 -68q-54 0 -98 16.5t-75.5 46.5t-49 71.5t-17.5 92.5q0 54 18 100.5t49 80.5t73.5 53.5t91.5 19.5q54 0 97.5 -23t72.5 -68q21 -32 29 -63.5t9 -80.5h-261z" />
    <glyph glyph-name="ecircumflex" unicode="&#xea;" horiz-adv-x="506" 
d="M219 656q22 39 48 39q27 0 46 -34l78 -141l-6 -4l-121 108l-117 -112l-7 2zM307 242v80v39q0 30 -1.5 43.5t-5.5 21.5q-11 21 -32 21q-53 0 -53 -141l-2 -64h94zM213 190q0 -35 1 -58t3 -39.5t6.5 -29.5t12.5 -28q17 -34 64 -34q35 0 64.5 15t52.5 44q18 23 25.5 44.5
t11.5 59.5h13q-3 -22 -6.5 -38t-8 -29t-10.5 -24t-14 -23q-49 -68 -155 -68q-54 0 -98 16.5t-75.5 46.5t-49 71.5t-17.5 92.5q0 54 18 100.5t49 80.5t73.5 53.5t91.5 19.5q54 0 97.5 -23t72.5 -68q21 -32 29 -63.5t9 -80.5h-261z" />
    <glyph glyph-name="edieresis" unicode="&#xeb;" horiz-adv-x="506" 
d="M330 638q22 0 36.5 -15.5t14.5 -38.5q0 -22 -15 -36.5t-38 -14.5q-22 0 -37 16t-15 39q0 21 15.5 35.5t38.5 14.5zM179 635q23 0 37.5 -15t14.5 -38t-15 -38t-38 -15t-38 15t-15 38t15.5 38t38.5 15zM307 242v80v39q0 30 -1.5 43.5t-5.5 21.5q-11 21 -32 21
q-53 0 -53 -141l-2 -64h94zM213 190q0 -35 1 -58t3 -39.5t6.5 -29.5t12.5 -28q17 -34 64 -34q35 0 64.5 15t52.5 44q18 23 25.5 44.5t11.5 59.5h13q-3 -22 -6.5 -38t-8 -29t-10.5 -24t-14 -23q-49 -68 -155 -68q-54 0 -98 16.5t-75.5 46.5t-49 71.5t-17.5 92.5
q0 54 18 100.5t49 80.5t73.5 53.5t91.5 19.5q54 0 97.5 -23t72.5 -68q21 -32 29 -63.5t9 -80.5h-261z" />
    <glyph glyph-name="igrave" unicode="&#xec;" horiz-adv-x="314" 
d="M97 569q-11 4 -19.5 17t-8.5 28q0 20 13 33.5t32 13.5q21 0 47 -29l98 -108l-3 -9zM255 448v-401q0 -18 6 -24t24 -7l33 -2l-1 -12h-306l1 12q21 1 33.5 3.5t19.5 8t9.5 14.5t2.5 23v320q0 17 -1.5 27t-7 15.5t-16 7.5t-28.5 2h-13v13h244z" />
    <glyph glyph-name="iacute" unicode="&#xed;" horiz-adv-x="314" 
d="M67 521l103 117q24 27 47 27q19 0 32 -13.5t13 -33.5q0 -17 -12.5 -31.5t-35.5 -22.5l-144 -49zM255 448v-401q0 -18 6 -24t24 -7l33 -2l-1 -12h-306l1 12q21 1 33.5 3.5t19.5 8t9.5 14.5t2.5 23v320q0 17 -1.5 27t-7 15.5t-16 7.5t-28.5 2h-13v13h244z" />
    <glyph glyph-name="icircumflex" unicode="&#xee;" horiz-adv-x="314" 
d="M117 658q22 40 48 40q27 0 46 -34l78 -141l-6 -4l-121 107l-117 -111l-6 2zM255 448v-401q0 -18 6 -24t24 -7l33 -2l-1 -12h-306l1 12q21 1 33.5 3.5t19.5 8t9.5 14.5t2.5 23v320q0 17 -1.5 27t-7 15.5t-16 7.5t-28.5 2h-13v13h244z" />
    <glyph glyph-name="idieresis" unicode="&#xef;" horiz-adv-x="314" 
d="M241 623q22 0 36.5 -15.5t14.5 -38.5q0 -22 -15 -36.5t-38 -14.5q-22 0 -37 16t-15 39q0 21 15.5 35.5t38.5 14.5zM91 621q23 0 37.5 -15t14.5 -38t-15 -38t-38 -15t-38 15t-15 38t15.5 38t38.5 15zM255 448v-401q0 -18 6 -24t24 -7l33 -2l-1 -12h-306l1 12
q21 1 33.5 3.5t19.5 8t9.5 14.5t2.5 23v320q0 17 -1.5 27t-7 15.5t-16 7.5t-28.5 2h-13v13h244z" />
    <glyph glyph-name="eth" unicode="&#xf0;" horiz-adv-x="537" 
d="M323 217v95q0 34 -5 63.5t-13 43.5q-5 8 -15 14t-20 6q-51 0 -55 -89q-2 -34 -2.5 -72t0 -74t2 -67t3.5 -52q5 -51 16 -69.5t34 -18.5q12 0 23 6t16 15q8 14 12 47.5t4 83.5v68zM389 556q60 -72 88 -144t28 -155q0 -39 -5 -69.5t-16 -56t-29 -47t-44 -42.5
q-69 -55 -143 -55q-44 0 -86 19t-75 50t-53 70.5t-20 81.5q0 50 19 94t51 77t75.5 52t93.5 19q55 0 105 -26q-12 56 -29 113l-77 -36l-5 11l78 37l-4 12q-12 31 -29.5 51.5t-52.5 44.5v10q26 -11 54.5 -34.5t67.5 -67.5l75 36l5 -11z" />
    <glyph glyph-name="ntilde" unicode="&#xf1;" horiz-adv-x="564" 
d="M166 536q11 39 26.5 55t44.5 16q7 0 12 -0.5t13 -2t20.5 -4.5t34.5 -9q13 -3 25.5 -5t21.5 -2q11 0 17.5 4t13.5 15l5 -1q-12 -41 -29.5 -57t-48.5 -16t-64 12q-40 14 -60 14q-13 0 -25 -19h-7zM10 14h21q21 0 30 9.5t9 32.5v325q0 29 -8.5 39.5t-30.5 10.5h-16v16h219
v-49q28 36 55.5 50.5t69.5 14.5q67 0 105 -35t38 -97v-274q0 -26 5.5 -35t21.5 -9h27v-13h-262v13h17q10 0 16 9.5t6 25.5v313q0 66 -36 66q-25 0 -42 -22t-17 -54v-307q0 -17 3.5 -24t14.5 -7h19v-13h-265v14z" />
    <glyph glyph-name="ograve" unicode="&#xf2;" horiz-adv-x="537" 
d="M201 570q-11 4 -19.5 17.5t-8.5 27.5q0 20 13 33.5t32 13.5q21 0 47 -28l98 -109l-2 -9zM322 217v95q0 34 -5 63.5t-13 43.5q-5 8 -15 14t-20 6q-51 0 -55 -89q-2 -34 -2.5 -72t0 -74t2 -67t3.5 -52q5 -51 16 -69.5t34 -18.5q12 0 23 6t16 15q8 14 12 47.5t4 83.5v68z
M275 450q46 0 87.5 -18.5t72.5 -50t49.5 -74t18.5 -89.5q0 -103 -93 -176q-69 -55 -143 -55q-44 0 -86 19t-75 50t-53 70.5t-20 81.5q0 51 19 95t51.5 76.5t76.5 51.5t95 19z" />
    <glyph glyph-name="oacute" unicode="&#xf3;" horiz-adv-x="537" 
d="M171 522l103 117q24 27 47 27q19 0 32 -13.5t13 -33.5q0 -17 -12.5 -31.5t-35.5 -22.5l-144 -49zM322 217v95q0 34 -5 63.5t-13 43.5q-5 8 -15 14t-20 6q-51 0 -55 -89q-2 -34 -2.5 -72t0 -74t2 -67t3.5 -52q5 -51 16 -69.5t34 -18.5q12 0 23 6t16 15q8 14 12 47.5
t4 83.5v68zM275 450q46 0 87.5 -18.5t72.5 -50t49.5 -74t18.5 -89.5q0 -103 -93 -176q-69 -55 -143 -55q-44 0 -86 19t-75 50t-53 70.5t-20 81.5q0 51 19 95t51.5 76.5t76.5 51.5t95 19z" />
    <glyph glyph-name="ocircumflex" unicode="&#xf4;" horiz-adv-x="537" 
d="M221 660q22 39 48 39q27 0 46 -34l79 -141l-7 -4l-121 108l-116 -112l-7 2zM322 217v95q0 34 -5 63.5t-13 43.5q-5 8 -15 14t-20 6q-51 0 -55 -89q-2 -34 -2.5 -72t0 -74t2 -67t3.5 -52q5 -51 16 -69.5t34 -18.5q12 0 23 6t16 15q8 14 12 47.5t4 83.5v68zM275 450
q46 0 87.5 -18.5t72.5 -50t49.5 -74t18.5 -89.5q0 -103 -93 -176q-69 -55 -143 -55q-44 0 -86 19t-75 50t-53 70.5t-20 81.5q0 51 19 95t51.5 76.5t76.5 51.5t95 19z" />
    <glyph glyph-name="otilde" unicode="&#xf5;" horiz-adv-x="537" 
d="M151 522q11 40 26.5 56t44.5 16q7 0 12 -0.5t12.5 -2t20 -4.5t35.5 -9q13 -3 25.5 -5t21.5 -2q12 0 18.5 3.5t12.5 14.5h5q-12 -41 -29.5 -57t-48.5 -16t-64 12q-19 7 -35 10.5t-25 3.5q-13 0 -25 -19zM322 217v95q0 34 -5 63.5t-13 43.5q-5 8 -15 14t-20 6
q-51 0 -55 -89q-2 -34 -2.5 -72t0 -74t2 -67t3.5 -52q5 -51 16 -69.5t34 -18.5q12 0 23 6t16 15q8 14 12 47.5t4 83.5v68zM275 450q46 0 87.5 -18.5t72.5 -50t49.5 -74t18.5 -89.5q0 -103 -93 -176q-69 -55 -143 -55q-44 0 -86 19t-75 50t-53 70.5t-20 81.5q0 51 19 95
t51.5 76.5t76.5 51.5t95 19z" />
    <glyph glyph-name="odieresis" unicode="&#xf6;" horiz-adv-x="537" 
d="M345 625q22 0 36.5 -15.5t14.5 -38.5q0 -22 -15 -36.5t-38 -14.5q-22 0 -37 16t-15 39q0 21 15.5 35.5t38.5 14.5zM195 622q23 0 37.5 -15t14.5 -38t-15 -38t-38 -15t-38 15t-15 38t15.5 38t38.5 15zM322 217v95q0 34 -5 63.5t-13 43.5q-5 8 -15 14t-20 6q-51 0 -55 -89
q-2 -34 -2.5 -72t0 -74t2 -67t3.5 -52q5 -51 16 -69.5t34 -18.5q12 0 23 6t16 15q8 14 12 47.5t4 83.5v68zM275 450q46 0 87.5 -18.5t72.5 -50t49.5 -74t18.5 -89.5q0 -103 -93 -176q-69 -55 -143 -55q-44 0 -86 19t-75 50t-53 70.5t-20 81.5q0 51 19 95t51.5 76.5
t76.5 51.5t95 19z" />
    <glyph glyph-name="divide" unicode="&#xf7;" horiz-adv-x="500" 
d="M493 388v-95h-486v95h486zM250 228q29 0 50 -21t21 -50q0 -30 -21 -51t-50 -21q-30 0 -51 21t-21 50q0 30 21 51t51 21zM250 596q29 0 50 -21t21 -51q0 -29 -21 -50t-50 -21q-30 0 -51 21t-21 50q0 31 21 51.5t51 20.5z" />
    <glyph glyph-name="oslash" unicode="&#xf8;" horiz-adv-x="555" 
d="M327 366q-5 39 -16.5 55.5t-34.5 16.5q-15 0 -27.5 -11t-16.5 -28q-6 -25 -8.5 -72.5t-2.5 -128.5v-24t1 -26zM224 98q3 -31 6.5 -50.5t9.5 -31t14.5 -15.5t22.5 -4q18 0 29 8.5t16.5 34t7.5 73t2 125.5v39.5t-1 40.5zM143 -69l-21 11l38 79q-55 31 -86.5 82t-31.5 111
q0 48 19 90.5t51.5 75t75.5 51.5t91 19q40 0 81 -15l37 76l21 -12l-35 -74q30 -15 54 -36.5t41 -48.5t26 -57.5t9 -62.5q0 -62 -33 -114.5t-94 -87.5q-53 -31 -107 -31q-47 0 -98 23z" />
    <glyph glyph-name="ugrave" unicode="&#xf9;" horiz-adv-x="555" 
d="M207 571q-11 4 -19 17.5t-8 27.5q0 20 13 33.5t31 13.5q21 0 47 -28l98 -108l-2 -10zM10 450h214v-367q0 -23 7.5 -32.5t24.5 -9.5q26 0 42.5 36t16.5 95v238q0 28 -28 28l-23 -1v13h218v-396q0 -41 24 -41h32v-13h-224v84q-11 -25 -22 -41.5t-24.5 -26.5t-30.5 -14
t-40 -4q-42 0 -75 17t-50 49q-5 8 -7.5 15t-4 16t-2 21t-0.5 32v259q0 19 -5 25t-21 6l-22 -1v13z" />
    <glyph glyph-name="uacute" unicode="&#xfa;" horiz-adv-x="555" 
d="M177 523l103 118q25 26 47 26q19 0 32 -13t13 -33q0 -18 -12.5 -32.5t-35.5 -22.5l-144 -49zM10 450h214v-367q0 -23 7.5 -32.5t24.5 -9.5q26 0 42.5 36t16.5 95v238q0 28 -28 28l-23 -1v13h218v-396q0 -41 24 -41h32v-13h-224v84q-11 -25 -22 -41.5t-24.5 -26.5
t-30.5 -14t-40 -4q-42 0 -75 17t-50 49q-5 8 -7.5 15t-4 16t-2 21t-0.5 32v259q0 19 -5 25t-21 6l-22 -1v13z" />
    <glyph glyph-name="ucircumflex" unicode="&#xfb;" horiz-adv-x="555" 
d="M228 661q21 39 47 39q13 0 25.5 -9t20.5 -24l79 -142l-7 -4l-121 108l-116 -112l-7 2zM10 450h214v-367q0 -23 7.5 -32.5t24.5 -9.5q26 0 42.5 36t16.5 95v238q0 28 -28 28l-23 -1v13h218v-396q0 -41 24 -41h32v-13h-224v84q-11 -25 -22 -41.5t-24.5 -26.5t-30.5 -14
t-40 -4q-42 0 -75 17t-50 49q-5 8 -7.5 15t-4 16t-2 21t-0.5 32v259q0 19 -5 25t-21 6l-22 -1v13z" />
    <glyph glyph-name="udieresis" unicode="&#xfc;" horiz-adv-x="555" 
d="M352 626q22 0 36.5 -15.5t14.5 -38.5q0 -22 -15 -36.5t-38 -14.5q-22 0 -37 16t-15 39q0 21 15.5 35.5t38.5 14.5zM201 623q23 0 37.5 -15t14.5 -38t-15 -38t-38 -15t-38 15t-15 38t15.5 38t38.5 15zM10 450h214v-367q0 -23 7.5 -32.5t24.5 -9.5q26 0 42.5 36t16.5 95
v238q0 28 -28 28l-23 -1v13h218v-396q0 -41 24 -41h32v-13h-224v84q-11 -25 -22 -41.5t-24.5 -26.5t-30.5 -14t-40 -4q-42 0 -75 17t-50 49q-5 8 -7.5 15t-4 16t-2 21t-0.5 32v259q0 19 -5 25t-21 6l-22 -1v13z" />
    <glyph glyph-name="yacute" unicode="&#xfd;" horiz-adv-x="559" 
d="M182 519l103 118q24 27 47 27q19 0 32 -13.5t13 -33.5q0 -18 -12.5 -32t-35.5 -22l-144 -49zM310 447v-14h-19q-11 0 -18.5 -4.5t-7.5 -11.5q0 -8 8 -29l97 -242l42 130q8 25 12.5 50.5t4.5 46.5q0 59 -52 60v14h178v-14h-8q-29 0 -45 -17q-10 -11 -21 -27.5t-21 -34.5
t-18.5 -37t-13.5 -34l-90 -277q-10 -31 -18.5 -53.5t-16 -39.5t-15 -29t-15.5 -22q-19 -21 -45.5 -33t-55.5 -12q-47 0 -77 29t-30 74q0 38 25 63.5t61 25.5q19 0 35 -7t28 -19t19 -28.5t7 -35.5q0 -33 -18 -52t-63 -31q8 -2 13 -2.5t10 -0.5q20 0 42.5 10.5t36.5 27.5
q16 18 28 43.5t30 78.5h-68l-185 404q-17 36 -45 36h-18v14h307z" />
    <glyph glyph-name="thorn" unicode="&#xfe;" horiz-adv-x="557" 
d="M262 67q12 -54 40 -54q11 0 20 10.5t11 27.5q2 10 3.5 29t3 42t2 47.5t0.5 45.5q0 57 -6 106.5t-16 73.5q-7 15 -23 15q-13 0 -22 -10t-17 -36v-282zM258 397q23 32 45.5 45t54.5 13q35 0 64.5 -17.5t50.5 -48t33 -73.5t12 -94q0 -54 -12 -99t-34 -78t-51.5 -51.5
t-65.5 -18.5q-29 0 -49 11t-48 42v-124q0 -49 35 -49l31 1v-15h-304v15l26 -1q23 0 31 9.5t8 36.5v716q0 33 -44 33h-34v17h251v-270z" />
    <glyph glyph-name="ydieresis" unicode="&#xff;" horiz-adv-x="559" 
d="M356 622q22 0 36.5 -15.5t14.5 -38.5q0 -22 -15 -36.5t-38 -14.5q-22 0 -37 16t-15 39q0 21 15.5 35.5t38.5 14.5zM206 619q23 0 37.5 -15t14.5 -38t-15 -38t-38 -15t-38 15t-15 38t15.5 38t38.5 15zM310 447v-14h-19q-11 0 -18.5 -4.5t-7.5 -11.5q0 -8 8 -29l97 -242
l42 130q8 25 12.5 50.5t4.5 46.5q0 59 -52 60v14h178v-14h-8q-29 0 -45 -17q-10 -11 -21 -27.5t-21 -34.5t-18.5 -37t-13.5 -34l-90 -277q-10 -31 -18.5 -53.5t-16 -39.5t-15 -29t-15.5 -22q-19 -21 -45.5 -33t-55.5 -12q-47 0 -77 29t-30 74q0 38 25 63.5t61 25.5
q19 0 35 -7t28 -19t19 -28.5t7 -35.5q0 -33 -18 -52t-63 -31q8 -2 13 -2.5t10 -0.5q20 0 42.5 10.5t36.5 27.5q16 18 28 43.5t30 78.5h-68l-185 404q-17 36 -45 36h-18v14h307z" />
    <glyph glyph-name="OE" unicode="&#x152;" horiz-adv-x="1049" 
d="M385 667q-59 0 -86 -48q-9 -17 -17 -47t-14 -68.5t-9.5 -82t-3.5 -87.5q0 -40 2.5 -79.5t6 -75t9 -63t11.5 -43.5q27 -69 96 -69q62 0 90.5 70t28.5 223q0 105 -5.5 176t-19 114t-35 61.5t-54.5 18.5zM961 673v-257h-11q0 69 -34.5 125t-97.5 91q-16 7 -29.5 12t-28.5 8
t-32.5 3.5t-41.5 0.5l1 -286q5 -1 10 -1h8q30 0 60 21.5t50 56.5q12 22 16 38.5t4 46.5l13 -1q0 -51 0.5 -87.5t1 -64t0.5 -49.5v-45v-49.5v-62.5l-11 1q1 35 -11 67.5t-33 56.5t-49 38t-59 12v-253q1 -24 1.5 -36.5t1 -19t1 -8.5t1.5 -4q3 -6 16 -9.5t32 -3.5
q56 0 92.5 17.5t67.5 59.5q22 30 41 66.5t30 70.5q5 16 7.5 33.5t4.5 48.5l12 -1l5 -309h-550q-17 -5 -30.5 -6.5t-28.5 -1.5q-65 0 -129.5 25t-112.5 69q-50 46 -76.5 108.5t-26.5 134.5q0 67 29 130.5t77 112.5t109.5 78.5t127.5 29.5q15 0 29 -2.5t34 -7.5z" />
    <glyph glyph-name="oe" unicode="&#x153;" horiz-adv-x="796" 
d="M599 242v80v45q0 44 -8.5 62t-31.5 18q-53 0 -53 -141l-1 -64h94zM335 218v94q0 34 -5 63.5t-13 43.5q-5 8 -15 14t-20 6q-51 0 -55 -89q-2 -33 -2.5 -71t0 -74t2 -67.5t3.5 -52.5q5 -51 16 -69.5t34 -18.5q16 0 26.5 7.5t17 25t9 47t2.5 73.5v68zM759 164
q-2 -20 -5 -35.5t-7.5 -28.5t-10.5 -24.5t-15 -23.5q-52 -70 -157 -70q-45 0 -81 11.5t-75 37.5q-59 -44 -129 -44q-45 0 -87 18.5t-74.5 49.5t-52 71.5t-19.5 83.5q0 49 18.5 93t51 76.5t75.5 51.5t91 19q16 0 30.5 -1.5t30 -6t33 -11.5t40.5 -17q36 27 68 38t73 11
q54 0 97.5 -23t72.5 -68q20 -32 28.5 -63.5t8.5 -80.5h-261l1 -38l1 -53q0 -38 10.5 -72t26.5 -49t51 -15q71 0 118 62q18 24 25.5 45t9.5 56h13z" />
    <glyph glyph-name="Scaron" unicode="&#x160;" horiz-adv-x="642" 
d="M359 784q-22 -40 -48 -40q-12 0 -24.5 9t-20.5 25l-79 141l7 4l121 -107l116 111l7 -2zM68 301q2 -18 5.5 -32.5t10 -30t17 -34.5t26.5 -46q49 -84 97 -122.5t102 -38.5q34 0 53 8t33 28q27 36 27 79q0 49 -35 79q-11 9 -19.5 15t-27.5 14t-54 20t-99 33
q-68 23 -107 72.5t-39 112.5q0 44 20.5 83t55 68.5t80.5 46.5t97 17q11 0 19.5 -0.5t19.5 -3t28.5 -7.5t46.5 -13q16 -5 31 -7.5t28 -2.5q40 0 49 39h12v-257h-12q-7 52 -26.5 96t-47 76t-62.5 50t-74 18q-42 0 -69 -28.5t-27 -73.5q0 -22 10.5 -43t29.5 -35q23 -17 43 -23
l127 -36q82 -23 124 -74.5t42 -126.5q0 -56 -20 -98t-64 -76q-39 -31 -85.5 -47t-95.5 -16q-20 0 -32.5 0.5t-31 5t-48 14t-82.5 26.5q-15 5 -31 5q-39 0 -45 -34h-11v300h11z" />
    <glyph glyph-name="scaron" unicode="&#x161;" horiz-adv-x="464" 
d="M278 560q-22 -40 -48 -40t-45 34l-79 142l7 4l121 -108l116 112l7 -2zM33 206h9q15 -47 37.5 -85.5t48.5 -66t55.5 -42.5t59.5 -15q27 0 43 15t16 40q0 26 -16.5 43t-54.5 30q-75 25 -113.5 46.5t-54.5 49.5q-22 38 -22 74q0 37 20.5 74t50.5 56q20 12 52.5 20.5
t59.5 8.5q38 0 83 -16q24 -9 41 -9q13 0 27 18h7l2 -157h-9q-11 24 -19 39.5t-15 26.5t-13.5 19.5t-14.5 17.5q-44 47 -83 47q-24 0 -40.5 -17t-16.5 -43t25 -43.5t87 -35.5q50 -14 83.5 -36t45.5 -48q8 -16 12 -37.5t4 -42.5q0 -40 -19 -73.5t-53 -53.5q-23 -14 -53 -23
t-51 -9q-42 0 -105 24q-39 14 -63 14q-10 0 -19 -5.5t-26 -19.5h-8v215z" />
    <glyph glyph-name="Ydieresis" unicode="&#x178;" horiz-adv-x="694" 
d="M424 843q22 0 36.5 -15.5t14.5 -38.5q0 -22 -15 -36.5t-38 -14.5q-22 0 -37 16t-15 39q0 21 15.5 35.5t38.5 14.5zM273 840q23 0 37.5 -15t14.5 -38t-15 -38t-38 -15t-38 15t-15 38t15.5 38t38.5 15zM386 667v-16h-37q-12 0 -21 -5.5t-9 -13.5q0 -10 9 -25l119 -227
l65 126q22 42 22 83q0 26 -17 44t-42 18h-18v16h233v-16l-32 1q-27 -1 -61.5 -39t-69.5 -107l-70 -138v-310q0 -23 13 -32.5t42 -9.5h28v-16h-374v16h36q26 0 39.5 12t13.5 33v284l-162 243q-23 34 -38.5 47t-37.5 16h-14v16h383z" />
    <glyph glyph-name="Zcaron" unicode="&#x17d;" horiz-adv-x="601" 
d="M349 774q-23 -39 -48 -39q-13 0 -25 9t-21 24l-78 142l6 4l121 -108l117 112l6 -2zM337 654q-37 -4 -65 -10.5t-52 -19t-46 -32t-48 -48.5q-21 -27 -34.5 -47.5t-21.5 -39t-10.5 -37t-2.5 -40.5h-13v288h537v-14l-322 -642q28 0 47 2t34.5 7t32 15.5t40.5 27.5
q32 23 60.5 55.5t49 67t31.5 68t8 59.5h12v-316h-569z" />
    <glyph glyph-name="zcaron" unicode="&#x17e;" horiz-adv-x="486" 
d="M286 553q-22 -40 -47 -40q-27 0 -46 34l-79 141l7 4l121 -107l116 111l7 -2zM242 432h-22q-50 0 -109 -56q-13 -13 -22.5 -25t-17 -26t-13 -31t-10.5 -40h-9v192h410l-228 -428h23q20 0 41 11t49 35q24 20 41 38t30.5 37t23.5 41t20 49h10v-229h-439z" />
    <glyph glyph-name="florin" unicode="&#x192;" 
d="M308 -37q-16 -95 -93 -135q-41 -20 -89.5 -32t-95.5 -12q-55 0 -89 25t-34 66q0 24 9 46t24 38.5t34.5 26.5t41.5 10q32 0 52.5 -21t20.5 -55q0 -19 -7 -38t-19 -34q-14 -17 -31 -25.5t-50 -14.5q17 -4 26.5 -5.5t18.5 -1.5q76 0 91 86l107 607h-48l3 19h49l11 65
q16 95 94 135q41 21 89.5 33t95.5 12q55 0 89 -25t34 -66q0 -24 -9 -46.5t-24 -39t-34.5 -26.5t-41.5 -10q-32 0 -52.5 21t-20.5 55q0 19 7 38t19 35q14 17 30.5 25t49.5 14q-16 5 -26 6.5t-18 1.5q-77 0 -92 -86l-24 -142h92l-4 -19h-92z" />
    <glyph glyph-name="circumflex" unicode="&#x2c6;" horiz-adv-x="284" 
d="M96 611q21 39 47 39q13 0 25.5 -9t20.5 -24l79 -142l-7 -4l-121 108l-116 -112l-7 2z" />
    <glyph glyph-name="tilde" unicode="&#x2dc;" horiz-adv-x="267" 
d="M17 485q11 39 26 55t44 16h12.5t13 -1.5t20 -4.5t35.5 -9q13 -3 25.5 -5t20.5 -2q12 0 18.5 3.5t12.5 14.5l5 -1q-12 -40 -29 -56t-48 -16q-29 0 -65 11q-39 14 -59 14q-13 0 -25 -19h-7z" />
    <glyph glyph-name="endash" unicode="&#x2013;" horiz-adv-x="501" 
d="M53 190q4 44 25.5 64t65.5 20q24 0 56 -2t65 -5q64 -7 93 -9.5t43 -2.5q18 0 26 4t13 17l8 -1q-8 -27 -15.5 -43t-19 -24.5t-28 -11t-43.5 -2.5q-16 0 -39.5 1t-49.5 3.5t-53 5.5t-49 6q-17 2 -31.5 3.5t-25.5 1.5q-15 0 -22.5 -5.5t-11.5 -19.5h-7z" />
    <glyph glyph-name="emdash" unicode="&#x2014;" horiz-adv-x="1127" 
d="M1063 253v-52h-1000v52h1000z" />
    <glyph glyph-name="quoteleft" unicode="&#x2018;" horiz-adv-x="328" 
d="M235 684q-60 -6 -96 -39t-38 -84q25 14 40.5 19.5t35.5 5.5q38 0 64 -25t26 -62q0 -36 -26.5 -60t-66.5 -24q-45 0 -73 30t-28 79q0 42 18.5 79.5t50.5 60.5q18 13 37.5 19.5t54.5 12.5z" />
    <glyph glyph-name="quoteright" unicode="&#x2019;" horiz-adv-x="328" 
d="M92 427q60 5 96.5 38.5t37.5 84.5q-25 -15 -40.5 -20.5t-35.5 -5.5q-38 0 -64 25t-26 62q0 36 26.5 60t66.5 24q45 0 73 -30t28 -78q0 -42 -18.5 -80t-50.5 -60q-18 -13 -37.5 -20t-54.5 -12z" />
    <glyph glyph-name="quotesinglbase" unicode="&#x201a;" horiz-adv-x="328" 
d="M92 -97q61 5 97 38t37 84q-25 -14 -40.5 -19.5t-35.5 -5.5q-38 0 -64 25t-26 62q0 36 26.5 60t66.5 24q45 0 73 -30t28 -79q0 -42 -18.5 -79.5t-50.5 -60.5q-18 -13 -37.5 -19.5t-54.5 -11.5z" />
    <glyph glyph-name="quotedblleft" unicode="&#x201c;" horiz-adv-x="598" 
d="M505 684q-60 -6 -96 -39t-38 -84q25 14 40.5 19.5t35.5 5.5q38 0 64 -25t26 -62q0 -36 -26.5 -60t-66.5 -24q-45 0 -73 30t-28 79q0 42 18.5 79.5t50.5 60.5q18 13 37.5 19.5t54.5 12.5zM235 684q-60 -6 -96 -39t-38 -84q25 14 40.5 19.5t35.5 5.5q38 0 64 -25t26 -62
q0 -36 -26.5 -60t-66.5 -24q-45 0 -73 30t-28 79q0 42 18.5 79.5t50.5 60.5q18 13 37.5 19.5t54.5 12.5z" />
    <glyph glyph-name="quotedblright" unicode="&#x201d;" horiz-adv-x="597" 
d="M92 427q61 5 97 38.5t37 84.5q-25 -15 -40.5 -20.5t-35.5 -5.5q-38 0 -64 25t-26 62q0 36 26.5 60t66.5 24q45 0 73 -30t28 -78q0 -42 -18.5 -80t-50.5 -60q-18 -13 -37.5 -20t-54.5 -12zM362 427q60 5 96 38.5t38 84.5q-25 -15 -40.5 -20.5t-35.5 -5.5q-38 0 -64 25
t-26 62t26.5 61t66.5 24q45 0 73 -30t28 -79q0 -42 -18.5 -79.5t-50.5 -60.5q-18 -13 -37.5 -20t-54.5 -12z" />
    <glyph glyph-name="quotedblbase" unicode="&#x201e;" horiz-adv-x="597" 
d="M92 -97q61 5 97 38t37 84q-25 -14 -40.5 -19.5t-35.5 -5.5q-38 0 -64 25t-26 62q0 36 26.5 60t66.5 24q45 0 73 -30t28 -79q0 -42 -18.5 -79.5t-50.5 -60.5q-18 -13 -37.5 -19.5t-54.5 -11.5zM362 -97q60 5 96 38.5t38 84.5q-25 -15 -40.5 -20.5t-35.5 -5.5q-38 0 -64 25
t-26 62q0 36 26.5 60t66.5 24q45 0 73 -30t28 -79q0 -42 -18.5 -79.5t-50.5 -60.5q-18 -13 -37.5 -19.5t-54.5 -11.5z" />
    <glyph glyph-name="dagger" unicode="&#x2020;" horiz-adv-x="519" 
d="M496 373h-177v-526h-122v526h-174v108h174v186h122v-186h177v-108z" />
    <glyph glyph-name="daggerdbl" unicode="&#x2021;" horiz-adv-x="519" 
d="M495 383h-175v-251h175v-105h-175v-180h-122v180h-175v105h175v251h-175v106h175v178h122v-178h175v-106z" />
    <glyph glyph-name="bullet" unicode="&#x2022;" horiz-adv-x="478" 
d="M240 446q22 0 41.5 -8.5t34.5 -23.5t23.5 -35t8.5 -42q0 -23 -8.5 -42.5t-23.5 -34.5t-35 -23.5t-42 -8.5q-23 0 -42.5 8.5t-34.5 23.5t-23.5 34.5t-8.5 42.5t8.5 43t23.5 34.5t35 23t43 8.5z" />
    <glyph glyph-name="ellipsis" unicode="&#x2026;" horiz-adv-x="910" 
d="M748 194q42 0 71 -29t29 -71t-28.5 -70.5t-70.5 -28.5q-43 0 -71.5 27.5t-28.5 69.5q0 45 27 73.5t72 28.5zM455 194q42 0 71 -29t29 -71t-28.5 -70.5t-70.5 -28.5q-43 0 -71.5 27.5t-28.5 69.5q0 45 27 73.5t72 28.5zM162 194q42 0 71 -29t29 -71t-28.5 -70.5
t-70.5 -28.5q-43 0 -71.5 27.5t-28.5 69.5q0 45 27 73.5t72 28.5z" />
    <glyph glyph-name="perthousand" unicode="&#x2030;" horiz-adv-x="808" 
d="M117 0h-75l366 652h74zM687 149q2 54 -8.5 85t-33.5 31q-11 0 -18.5 -6t-12 -21t-6 -41.5t-1.5 -66.5q0 -19 1 -40t3 -39.5t4 -32.5t5 -20q3 -8 11.5 -13t16.5 -5q38 0 38 71zM649 277q26 0 49 -12t40 -32.5t27 -48t10 -59.5t-10.5 -60.5t-28.5 -50t-42 -34t-51 -12.5
q-26 0 -48.5 12t-39.5 33t-27 48.5t-10 58.5q0 33 10 62t27.5 50t41.5 33t52 12zM395 149q2 54 -8.5 85t-33.5 31q-12 0 -19.5 -6t-12 -21t-6 -41.5t-1.5 -66.5q0 -19 1 -40t3 -39.5t4.5 -32.5t4.5 -20q3 -8 11.5 -13t16.5 -5q39 0 39 71zM356 277q27 0 50 -12t40 -32.5
t27 -48t10 -59.5t-10.5 -60.5t-28.5 -50t-42 -34t-51 -12.5q-26 0 -49 12t-40 33t-27 48.5t-10 58.5q0 34 10 62.5t27.5 49.5t41.5 33t52 12zM160 644q-24 0 -33.5 -36t-9.5 -128q0 -29 4 -56.5t10 -40.5q8 -17 28 -17q23 0 32.5 22t9.5 76q0 16 -0.5 37t-1.5 41t-2 36
t-2 22q-6 44 -35 44zM159 657q28 0 51.5 -11.5t40.5 -32t26.5 -49t9.5 -61.5q0 -30 -10.5 -57.5t-28 -48t-41 -32.5t-49.5 -12t-48.5 12t-39 32.5t-26.5 47.5t-10 58t10 59t27.5 49t40 33.5t47.5 12.5z" />
    <glyph glyph-name="guilsinglleft" unicode="&#x2039;" horiz-adv-x="261" 
d="M13 231l162 221l85 -71l-111 -150l111 -151l-85 -69z" />
    <glyph glyph-name="guilsinglright" unicode="&#x203a;" horiz-adv-x="259" 
d="M12 79l111 151l-111 152l86 69l161 -221l-161 -219z" />
    <glyph glyph-name="Euro" unicode="&#x20ac;" 
d="M344 378l-5 -12h-122v-37v-30h104l-5 -12h-99q1 -27 2 -47.5t3.5 -38.5t5.5 -34.5t8 -35.5q18 -66 45 -94.5t72 -28.5q42 0 78.5 20t63 55.5t41.5 84t15 105.5h10v-13q0 -32 -8 -67t-22 -68q-31 -70 -81 -101.5t-131 -31.5q-85 0 -149.5 40.5t-104.5 118.5
q-33 65 -37 136h-51l5 12h45q0 23 0.5 35t2.5 32h-53l5 12h50q11 58 34.5 109t57.5 89q42 46 94.5 73.5t100.5 27.5q23 0 43 -5.5t45 -18.5q47 -25 72 -25q9 0 22 6t20 14q7 7 8 25h11v-320h-10q-6 57 -21 104.5t-41 96.5q-59 109 -133 109q-38 0 -63 -36t-40 -112
q-7 -34 -10.5 -69t-4.5 -68h127z" />
    <glyph glyph-name="trademark" unicode="&#x2122;" horiz-adv-x="934" 
d="M13 667h377v-169h-6q1 24 -8 49.5t-24 48t-35 39t-41 22.5h-13v-353q0 -29 36 -29h19v-10h-239v10h20q40 0 40 34v348h-12q-7 0 -18.5 -6.5t-23.5 -17t-23.5 -23.5t-18.5 -26q-14 -24 -19 -40.5t-5 -36.5v-9h-6v169zM421 275h14q22 0 36.5 25.5t14.5 64.5v245
q0 23 -13.5 33t-51.5 15v9h181l78 -278l69 278h171v-9h-21q-25 0 -32.5 -6t-7.5 -24v-316q0 -20 8 -28.5t27 -8.5h26v-10h-226v10h24q23 0 23 37v283l-83 -330h-66l-98 330v-222q0 -47 13.5 -72.5t37.5 -25.5h21v-10h-145v10z" />
    <glyph glyph-name="glyph220" horiz-adv-x="0" 
 />
    </font>
</defs>
</svg>
